Адрес РуТрекера для пользователей РФ - MainTracker.org

Расскажи друзьям:  

Наследники / Серии: 1-60 из 60 (Вячеслав Судов, Фёдор Краснопёров) [2013, комедия, HDTVRip]

Страницы:  1

Ответить
Автор
Сообщение

Pigy

Хранитель

Стаж: 9 лет 2 месяца

Сообщений: 1392

Pigy · 13-Янв-18 17:41 (10 дней назад)

Наследники
Год выпуска: 2013
Производство: Продюсерский центр "Сила"
Жанр: комедия
Продолжительность: ~00:44:00 серия
Субтитры: нет
Режиссёр: Вячеслав Судов, Фёдор Краснопёров
В ролях: Вера Бабичева, Виктор Логинов, Александр Бобров, Яна Чигир, Родион Толоконников, Владислава Артюха, Дарья Белоусова, Михаил Васьков, Александр Резалин, Юлия Вознесенская, Артём Федотов, Олег Акулич, Антонина Деманова, Ирина Темичева, Николай Цонку, Наталья Жернакова, Николай Разуменко, Валентин Овсюк
Описание: Одинокая пожилая женщина, вдова полковника МВД Аделаида Заболоцкая (Вера Бабичева) решает завести себе внука или внучку, кому впоследствии сможет отписать свою пятикомнатную квартиру в сталинском доме элитного района Москвы. Подыскать себе достойного наследника она просит местного председателя ТСЖ Савельева. Однако новости о квартире быстро распространяются, и желающих унаследовать дорогостоящее жилье обнаруживается сразу четверо: владелец почти разорившегося магазинчика Артем, будущая актриса Лиза, журналистка Маша и студент МВД Данила. Каждому из них Аделаида Степановна сочувствует и решает помочь в их трудной жизненной ситуации, поэтому поселяет их всех у себя. А чтобы определить, кто же станет ее внуком и наследником, пожилая дама устраивает соревнование... За хорошее отношение к ней претенденты будут получать поощрительные баллы, за проступки баллы будут сниматься...

Доп. информация: Премьера сериала состоялась 5 июня 2017 года на канале Россия 1.
Реклама: Нет.
Кинопоиск
Все раздачи сериала
Sample
Качество: HDTVRip - Files-x
Формат: AVI
Видео кодек: XviD
Аудио кодек: AC3
Видео: 720x400 (1.80:1), 25 fps, XviD build 73 ~1550 kbps avg, 0.215 bit/pixel
Аудио: 48.0 kHz, AC3 Dolby Digital, 2/0 (L,R) ch, ~ 192 kbps
MI
General
Complete name : D:\Наследники.2013.HDTVRip.Files-x\01.Наследники.2013.HDTVRip.Files-x.avi
Format : AVI
Format/Info : Audio Video Interleave
File size : 550 MiB
Duration : 43mn 53s
Overall bit rate : 1 752 Kbps
Writing application : VirtualDubMod 1.5.10.3 | www.virtualdub-fr.org || (build 2550/release)
Writing library : VirtualDubMod build 2550/release
Video
ID : 0
Format : MPEG-4 Visual
Format profile : Advanced Simple@L5
Format settings, BVOP : 1
Format settings, QPel : No
Format settings, GMC : No warppoints
Format settings, Matrix : Custom
Codec ID : XVID
Codec ID/Hint : XviD
Duration : 43mn 53s
Bit rate : 1 550 Kbps
Width : 720 pixels
Height : 400 pixels
Display aspect ratio : 16:9
Frame rate : 25.000 fps
Color space : YUV
Chroma subsampling : 4:2:0
Bit depth : 8 bits
Scan type : Progressive
Compression mode : Lossy
Bits/(Pixel*Frame) : 0.215
Stream size : 487 MiB (88%)
Writing library : XviD 1.2.1 (UTC 2008-12-04)
Audio
ID : 1
Format : AC-3
Format/Info : Audio Coding 3
Mode extension : CM (complete main)
Format settings, Endianness : Big
Codec ID : 2000
Duration : 43mn 53s
Bit rate mode : Constant
Bit rate : 192 Kbps
Channel count : 2 channels
Channel positions : Front: L R
Sampling rate : 48.0 KHz
Bit depth : 16 bits
Compression mode : Lossy
Stream size : 60.3 MiB (11%)
Alignment : Split accross interleaves
Interleave, duration : 40 ms (1.00 video frame)
Interleave, preload duration : 500 ms
Скриншоты
Download
Чтобы скачать .torrent файл необходима регистрация
Сайт не распространяет и не хранит электронные версии произведений, а лишь предоставляет доступ к создаваемому пользователями каталогу ссылок на торрент-файлы, которые содержат только списки хеш-сумм
[Профиль]  [ЛС] 
 

marinabakleneva

Стаж: 6 лет 11 месяцев

Сообщений: 103


marinabakleneva · 14-Янв-18 22:26 (спустя 1 день 4 часа)

[Цитировать] 

спасибо Pigy и со Старым Новым годом 2018 ) И за все замечательные раздачи в этом году!
Желаю Вам вдохновения, больших побед и множества приятных мелочей в следующем году!
[Профиль]  [ЛС] 

Pigy

Хранитель

Стаж: 9 лет 2 месяца

Сообщений: 1392

Pigy · 14-Янв-18 23:07 (спустя 41 мин.)

[Цитировать] 

marinabakleneva писал(а):
74606316спасибо Pigy и со Старым Новым годом 2018 ) И за все замечательные раздачи в этом году!
Желаю Вам вдохновения, больших побед и множества приятных мелочей в следующем году!
Спасибо большое. Вас тоже со праздником и всего наилучшего в Новом году.
[Профиль]  [ЛС] 

thj.lo

Стаж: 9 лет 9 месяцев

Сообщений: 159


thj.lo · 21-Янв-18 23:37 (спустя 7 дней)

[Цитировать] 

Задумка неплохая. Но придурковатая игра актеров.
В фоновом режиме осилила 10 серий.
[Профиль]  [ЛС] 
 
Ответить
Loading...
Error