Адрес РуТрекера для пользователей РФ - MainTracker.org

Расскажи друзьям:  

Где логика? [08.11.2017, Юмор, WEB-DLRip]

Страницы:  1

Ответить
Автор
Сообщение

valikkaraban01

Стаж: 7 месяцев

Сообщений: 60


valikkaraban01 · 10-Ноя-17 12:43 (1 месяц 4 дня назад)

Где логика?
Дата/Год выпуска: 08.11.2017
Страна: Россия
Жанр: Юмор
Продолжительность: 00:48:31
Перевод: Не требуется
Русские субтитры: нет
Оригинальная аудиодорожка: русский
Ведущий: Азамат Мусагалиев
Телеканал: ТНТ
Описание: Звездные семейные пары, партнеры по съемочной площадке, просто хорошие друзья и знакомые будут вместе пытаться выстраивать логические связи между самыми, казалось бы, нелогичными событиями, предметами или фактами. Почему мы оставляем официантам на чай, но не оставляем врачам на бинты? Для чего нам мизинцы на ногах? Зачем мыть машину в ноябре? Почему существует сухое вино, но вы нигде не найдете мокрого? Правильного, однозначного ответа на эти вопросы попросту не существует. Поэтому решать, кто из пар был наиболее логичен в своих рассуждениях, будет ведущий шоу Азамат Мусагалиев. Его задача не только определить победителя, но и помочь паре выстроить логическую цепочку. Новую программу ТНТ невозможно подвести ни под один существующий формат. Это и викторина, и интеллектуальный конкурс, и даже в чем-то стендап-камеди. Но самая большая ценность нового проекта состоит в том, что играть в него могут не только непосредственные участники программы, но и зрители ТНТ у экранов телевизоров.
Качество: WEB-DLRip
Формат: MKV
Видео: MPEG4, XviD, 720x400 (16:9), 25.000 fps, 1 797 Kbps (0.250 bit/pixel)
Аудио: MP3, 44.1 KHz, 2 ch, 128 Kbps, CBR
Список выпусков/серий
сезон 3, выпуск 28
MediaInfo
Общее
Формат : AVI
Формат/Информация : Audio Video Interleave
Размер файла : 671 Мбайт
Продолжительность : 48 м.
Общий поток : 1935 Кбит/сек
Название фильма : Gde logika. 5.13 (2017.11.08)_ СПАМ
Программа кодирования : VirtualDubMod 1.5.10.3 | www.virtualdub-fr.org || (build 2550/release)
Библиотека кодирования : VirtualDubMod build 2550/release
Видео
Идентификатор : 0
Формат : MPEG-4 Visual
Профиль формата : Advanced Simple@L5
Параметр BVOP формата : 1
Параметр QPel формата : Нет
Параметр GMC формата : Без точки перехода
Параметр матрицы формата : Default (H.263)
Идентификатор кодека : XVID
Идентификатор кодека/Подсказка : XviD
Продолжительность : 48 м.
Битрейт : 1797 Кбит/сек
Ширина : 720 пикселей
Высота : 400 пикселей
Соотношение сторон : 16:9
Частота кадров : 25,000 кадров/сек
Цветовое пространство : YUV
Субдискретизация насыщенности : 4:2:0
Битовая глубина : 8 бит
Тип развёртки : Прогрессивная
Метод сжатия : С потерями
Бит/(Пиксели*Кадры) : 0.250
Размер потока : 624 Мбайт (93%)
Библиотека кодирования : XviD 67
Аудио
Идентификатор : 1
Формат : MPEG Audio
Версия формата : Version 1
Профиль формата : Layer 3
Режим : Joint stereo
Расширение режима : MS Stereo
Идентификатор кодека : 55
Идентификатор кодека/Подсказка : MP3
Продолжительность : 48 м.
Вид битрейта : Постоянный
Битрейт : 128 Кбит/сек
Каналы : 2 канала
Частота : 44,1 КГц
Метод сжатия : С потерями
Размер потока : 44,4 Мбайт (7%)
Выравнивание : Разделение по промежуткам
Продолжительность промежутка : 40 мс. (1,00 видеокадр)
Время предзагрузки промежутка : 500 мс.
Библиотека кодирования : LAME3.99.5UUUUUUUмB)
Скриншоты
Download
Чтобы скачать .torrent файл необходима регистрация
Сайт не распространяет и не хранит электронные версии произведений, а лишь предоставляет доступ к создаваемому пользователями каталогу ссылок на торрент-файлы, которые содержат только списки хеш-сумм
[Профиль]  [ЛС] 
 
Ответить
Loading...
Error