Адрес РуТрекера для пользователей РФ - MainTracker.org

Расскажи друзьям:  

Stand Up. Выпуск 103 [17.09.2017, Юмор, HDTV 1080i]

Страницы:  1

Ответить
Автор
Сообщение

valikkaraban01

Стаж: 7 месяцев

Сообщений: 60


valikkaraban01 · 06-Ноя-17 21:38 (1 месяц 9 дней назад)

Stand Up
Дата/Год выпуска: 17.09.2017
Страна: Россия
Жанр: Юмор
Продолжительность: 00:48:47
Перевод: Не требуется
Русские субтитры: нет
Оригинальная аудиодорожка: русский
Телеканал: ТНТ
Описание: Новое юмористическое шоу в жанре стендап. Здесь люди рассказывают о своих проблемах. Слава богу, что они у нас есть!
Качество: HDTV 1080i
Формат: TS
Видео: AVC, 1920x1080 (16:9), 25.000 fps, 5 026 Kbps (0.097 bit/pixel)
Аудио: MP2, 48.0 KHz, 2 ch, 192 Kbps, CBR
Список выпусков/серий
сезон 5, выпуск 1
MediaInfo
Общее
Идентификатор : 1 (0x1)
Формат : MPEG-TS
Размер файла : 1,87 Гбайт
Продолжительность : 48 м.
Режим общего битрейта : Переменный
Общий поток : 5491 Кбит/сек
Видео
Идентификатор : 207 (0xCF)
Идентификатор меню : 2207 (0x89F)
Формат : AVC
Формат/Информация : Advanced Video Codec
Профиль формата : High@L4
Параметр CABAC формата : Да
Параметр ReFrames формата : 4 кадра
Идентификатор кодека : 27
Продолжительность : 48 м.
Битрейт : 5026 Кбит/сек
Ширина : 1920 пикселей
Высота : 1080 пикселей
Соотношение сторон : 16:9
Частота кадров : 25,000 кадров/сек
Стандарт вещания : Component
Цветовое пространство : YUV
Субдискретизация насыщенности : 4:2:0
Битовая глубина : 8 бит
Тип развёртки : Чересстрочная
Порядок развёртки : Верхнее поле первое
Бит/(Пиксели*Кадры) : 0.097
Размер потока : 1,71 Гбайт (92%)
Цветовой диапазон : Limited
Основные цвета : BT.709
Характеристики трансфера : BT.709
Коэффициенты матрицы : BT.709
Аудио
Идентификатор : 307 (0x133)
Идентификатор меню : 2207 (0x89F)
Формат : MPEG Audio
Версия формата : Version 1
Профиль формата : Layer 2
Идентификатор кодека : 3
Продолжительность : 48 м.
Вид битрейта : Постоянный
Битрейт : 192 Кбит/сек
Каналы : 2 канала
Частота : 48,0 КГц
Метод сжатия : С потерями
Задержка видео : -80 мс.
Размер потока : 67,0 Мбайт (3%)
Язык : Russian
Скриншоты
Download
Чтобы скачать .torrent файл необходима регистрация
Сайт не распространяет и не хранит электронные версии произведений, а лишь предоставляет доступ к создаваемому пользователями каталогу ссылок на торрент-файлы, которые содержат только списки хеш-сумм
[Профиль]  [ЛС] 
 
Ответить
Loading...
Error