Адрес РуТрекера для пользователей РФ - MainTracker.org

Расскажи друзьям:  

[ATV3] Заложники (Резо Гигинеишвили) [2017, Россия, Грузия , Драма, триллер, биография, история, WEB-DL, HD (1080p)] Original

Страницы:  1

Ответить
Автор
Сообщение

pk5360114

Стаж: 8 лет 9 месяцев

Сообщений: 3428

pk5360114 · 05-Ноя-17 12:48 (16 дней назад, ред. 05-Ноя-17 15:29)

Заложники
-
5.758 / 10 7.40 / 10

Год выпуска: 2017
Страна: Россия, Грузия
Жанр: Драма, триллер, биография, история
Продолжительность: 01:43:49
Перевод: Не требуется
Оригинальная аудиодорожка: Есть
Cубтитры: Нет
Режиссёр: Резо Гигинеишвили
Сценарий: Лаша Бугадзе, Резо Гигинеишвили
Продюсер: Михаил Финогенов, Тамара Татишвили, Владимир Качарава
Оператор: Владислав Опельянц
Композитор: Гия Канчели
Художник: Котэ Джапаридзе, Федор Савельев, Тинатин Квиникадзе
Монтаж: Ярослав Камински, Андрей Гамов
В ролях: Иракли Квирикадзе, Тинатин Далакишвили, Гига Датиашвили, Гиорги Грдзелидзе, Георгий Табидзе, Гиорги Хурцилава, Вахтанг Чачанидзе, Екатерина Калатозишвили, Бека Лемонджава, Мераб Нинидзе
Сборы в России: $346 626
Мировая премьера: 10 февраля 2017
Премьера (РФ): 21 сентября 2017, «Централ Партнершип»
Описание: Начало 80-х. Советская Грузия. Всего несколько лет до распада Советского Союза. Молодые люди из уважаемых грузинских семей ищут себя в условиях закрытой системы. Музыка Beatles, джинсы, американские сигареты, положение в обществе, гарантированное будущее… У них, казалось, было все, кроме одного — свободы. Цена этой свободы окажется слишком высока… Подлинная история о событиях 1983 года, когда шесть парней и одна девушка пытались угнать самолет с целью побега из СССР.
Качество исходника: WEB-DL 1080p (BlueBird)
Качество: WEB-DL
Тип: HD (1080p)
Контейнер: M4V
Видео: H.264, 1920x720, 2.667, 4 577 Kbps, 24.000 fps
Аудио 1: Русский/Оригинальная дорожка , AAC / 2.0 / 160 Kbps / 48.0 KHz
Аудио 2: Русский/Оригинальная дорожка , AC-3 / 5.1 / 384 Kbps / 48.0 KHz


iTunes Meta Tags
Код:
Sort Name: Заложники
XID: Apple:vendor_id:2017-1007058
contentID: 1277753774
Copyright: © 2017 All Media Company
Screenwriters: Лаша Бугадзе, Резо Гигинеишвили
Producers: Михаил Финогенов, Тамара Татишвили, Владимир Качарава
Director: Резо Гигинеишвили
Cast: Иракли Квирикадзе, Тинатин Далакишвили, Гига Датиашвили, Гиорги Грдзелидзе, Георгий Табидзе, Гиорги Хурцилава, Вахтанг Чачанидзе, Екатерина Калатозишвили, Бека Лемонджава, Мераб Нинидзе
Studio: 20 Steps Productions, Extreme Emotions, «Кинокомпания «Небо»
Rating: 135
Long Description: Начало 80-х. Советская Грузия. Всего несколько лет до распада Советского Союза. Молодые люди из уважаемых грузинских семей ищут себя в условиях закрытой системы. Музыка Beatles, джинсы, американские сигареты, положение в обществе, гарантированное будущее… У них, казалось, было все, кроме одного — свободы. Цена этой свободы окажется слишком высока… Подлинная история о событиях 1983 года, когда шесть парней и одна девушка пытались угнать самолет с целью побега из СССР.
Description: Начало 80-х. Советская Грузия. Всего несколько лет до распада Советского Союза. Молодые люди из уважаемых грузинских семей ищут себя в условиях закрытой системы. Музыка Beatles, джинсы, американские сигареты, положение в обществе, гарантированное будущее…
Release Date: 2017-09-21T07:00:00Z
Genre: Русское кино
Artist: Резо Гигинеишвили
Name: Заложники
MediaInfo
Код:
General
Complete name : /Users/imac/HandBrake/Hostages,WEB-DL.1080p.m4v
Format : MPEG-4
Codec ID : M4V
File size : 3.72 GiB
Duration : 1h 43mn
Overall bit rate mode : Variable
Overall bit rate : 5 124 Kbps
Movie name : Заложники
Performer : Резо Гигинеишвили
Director : Резо Гигинеишвили
Actor : Иракли Квирикадзе / Тинатин Далакишвили / Гига Датиашвили / Гиорги Грдзелидзе / Георгий Табидзе / Гиорги Хурцилава / Вахтанг Чачанидзе / Екатерина Калатозишвили / Бека Лемонджава / Мераб Нинидзе
Screenplay by : Лаша Бугадзе / Резо Гигинеишвили
Producer : Михаил Финогенов / Тамара Татишвили / Владимир Качарава
Production studio : 20 Steps Productions, Extreme Emotions, «Кинокомпания «Небо»
Genre : Русское кино
ContentType : Short Film
Description : Начало 80-х. Советская Грузия. Всего несколько лет до распада Советского Союза. Молодые люди из уважаемых грузинских семей ищут себя в условиях закрытой системы. Музыка Beatles, джинсы, американские сигареты, положение в обществе, гарантированное будущее…
Recorded date : UTC 2017-09-21 07:00:00
Encoded date : UTC 2017-11-04 23:56:09
Tagged date : UTC 2017-11-05 00:01:49
Copyright : © 2017 All Media Company
Cover : Yes
Rating : None
Title/Sort : Заложники
LongDescription : Начало 80-х. Советская Грузия. Всего несколько лет до распада Советского Союза. Молодые люди из уважаемых грузинских семей ищут себя в условиях закрытой системы. Музыка Beatles, джинсы, американские сигареты, положение в обществе, гарантированное будущее… У них, казалось, было все, кроме одного — свободы. Цена этой свободы окажется слишком высока… Подлинная история о событиях 1983 года, когда шесть парней и одна девушка пытались угнать самолет с целью побега из СССР.
AppleStoreCatalogID : 1277753774
Vendor : Apple:vendor_id:2017-1007058
ContentRating : ru-movie|16+|375|
Video #1
ID : 1
Format : AVC
Format/Info : Advanced Video Codec
Format profile : High@L4
Format settings, CABAC : Yes
Format settings, ReFrames : 5 frames
Codec ID : avc1
Codec ID/Info : Advanced Video Coding
Duration : 1h 43mn
Bit rate : 4 577 Kbps
Width : 1 920 pixels
Height : 720 pixels
Display aspect ratio : 2.667
Frame rate mode : Variable
Frame rate : 24.000 fps
Minimum frame rate : 23.810 fps
Maximum frame rate : 24.390 fps
Color space : YUV
Chroma subsampling : 4:2:0
Bit depth : 8 bits
Scan type : Progressive
Bits/(Pixel*Frame) : 0.138
Stream size : 3.32 GiB (89%)
Title : Main Program
Language : Russian
Encoded date : UTC 2017-11-04 23:56:09
Tagged date : UTC 2017-11-04 23:57:37
Color range : Limited
Color primaries : BT.709
Transfer characteristics : BT.709
Matrix coefficients : BT.709
Video #2
ID : 5
Format : JPEG
Codec ID : jpeg
Duration : 1h 43mn
Bit rate mode : Variable
Bit rate : 794 bps
Width : 640 pixels
Height : 240 pixels
Display aspect ratio : 2.667
Frame rate mode : Variable
Frame rate : 0.003 fps
Minimum frame rate : 0.001 fps
Maximum frame rate : 0.004 fps
Color space : YUV
Chroma subsampling : 4:2:0
Bit depth : 8 bits
Compression mode : Lossy
Bits/(Pixel*Frame) : 1.723
Stream size : 517 KiB (0%)
Title : Chapter Images
Language : Russian
Encoded date : UTC 2017-11-04 23:57:43
Tagged date : UTC 2017-11-04 23:57:43
Audio #1
ID : 2
Format : AAC
Format/Info : Advanced Audio Codec
Format profile : LC
Codec ID : 40
Duration : 1h 43mn
Bit rate mode : Variable
Bit rate : 157 Kbps
Maximum bit rate : 271 Kbps
Channel(s) : 2 channels
Channel positions : Front: L R
Sampling rate : 48.0 KHz
Compression mode : Lossy
Stream size : 117 MiB (3%)
Title : Russian Stereo
Language : Russian
Encoded date : UTC 2017-11-04 23:56:09
Tagged date : UTC 2017-11-04 23:56:13
Audio #2
ID : 3
Format : AC-3
Format/Info : Audio Coding 3
Mode extension : CM (complete main)
Format settings, Endianness : Big
Codec ID : ac-3
Duration : 1h 43mn
Bit rate mode : Constant
Bit rate : 384 Kbps
Channel(s) : 6 channels
Channel positions : Front: L C R, Side: L R, LFE
Sampling rate : 48.0 KHz
Bit depth : 16 bits
Compression mode : Lossy
Stream size : 285 MiB (7%)
Title : Russian DD 5.1
Language : Russian
Encoded date : UTC 2017-11-04 23:56:09
Tagged date : UTC 2017-11-04 23:57:37
Menu #1
00:00:00.000 : 1
00:04:44.291 : 2
00:11:06.291 : 3
00:16:56.791 : 4
00:22:46.541 : 5
00:27:36.624 : 6
00:34:28.040 : 7
00:38:45.873 : 8
00:45:03.038 : 9
00:52:34.414 : 10
00:56:33.580 : 11
01:02:31.621 : 12
01:10:06.746 : 13
01:17:08.912 : 14
01:23:19.787 : 15
01:31:24.912 : 16
Menu #2
ID : 4
Codec ID : text
Duration : 1h 43mn
Language : Russian
Encoded date : UTC 2017-11-04 23:57:38
Tagged date : UTC 2017-11-04 23:57:38
00:00:00.000 : 1
00:04:44.291 : 2
00:11:06.291 : 3
00:16:56.791 : 4
00:22:46.541 : 5
00:27:36.624 : 6
00:34:28.040 : 7
00:38:45.873 : 8
00:45:03.038 : 9
00:52:34.414 : 10
00:56:33.580 : 11
01:02:31.621 : 12
01:10:06.746 : 13
01:17:08.912 : 14
01:23:19.787 : 15
01:31:24.912 : 16
Bit rate mode : VBR
Скриншоты



Релиз подготовлен для просмотра на Apple TV, iPad, iPhone, iPod Touch.
Для просмотра данного релиза на компьютере с ОС Windows рекомендуется использовать VLC media player
Download
Чтобы скачать .torrent файл необходима регистрация
Сайт не распространяет и не хранит электронные версии произведений, а лишь предоставляет доступ к создаваемому пользователями каталогу ссылок на торрент-файлы, которые содержат только списки хеш-сумм
[Профиль]  [ЛС] 

snadtoka

Стаж: 9 лет

Сообщений: 5


snadtoka · 07-Ноя-17 15:30 (спустя 2 дня 2 часа)

[Цитировать] 

Дрянь!
[Профиль]  [ЛС] 

tsarsolomon

Стаж: 6 лет 11 месяцев

Сообщений: 14


tsarsolomon · 08-Ноя-17 15:23 (спустя 23 часа, ред. 09-Ноя-17 03:48)

[Цитировать] 

snadtoka писал(а):
74176358Дрянь!
Содержательно. Релиз или фильм?
Качество отличное. Сам фильм понравился, очень атмосферный. Игра актеров на высоте. Уже после просмотра увидел много плохих отзывов, практически все обвиняют команду фильма в неправдоподобности рассказанной истории, и так как подгорело у них знатно, до кучи хают и актеров и сценаристов и операторов. Правду искать не берусь, я смотрел фильм с чистого листа, не зная истории, и фильм очень понравился.
Хотя указано что дорожка оригинальная, заметно во многих местах что герои говорят на грузинском и их переводят.
[Профиль]  [ЛС] 
 
Ответить
Loading...
Error