Адрес РуТрекера для пользователей РФ - MainTracker.org

Расскажи друзьям:  

Заложники (Резо Гигинеишвили) [2017, Россия, Грузия, Польша, драма, триллер, биография, история, WEB-DL 720p] Original Rus

Страницы:  1

Ответить
Автор
Сообщение

Pigy

Хранитель

Стаж: 9 лет

Сообщений: 1145

Pigy · 02-Ноя-17 12:25 (19 дней назад, ред. 02-Ноя-17 13:15)

Заложники
Страна: Россия, Грузия, Польша
Студия: 20 Steps Productions, Extreme Emotions
Жанр: драма, триллер, биография, история
Год выпуска: 2017
Продолжительность: 01:43:49
Перевод: Не требуется
Субтитры: нет
Оригинальная аудиодорожка: русский
Режиссер: Резо Гигинеишвили
В ролях: Иракли Квирикадзе, Тинатин Далакишвили, Гига Датиашвили, Гиорги Грдзелидзе, Георгий Табидзе, Гиорги Хурцилава, Вахтанг Чачанидзе, Екатерина Калатозишвили, Бека Лемонджава, Мераб Нинидзе

Описание: Начало 80-х. Советская Грузия. Всего несколько лет до распада Советского Союза. Молодые люди из уважаемых грузинских семей ищут себя в условиях закрытой системы. Музыка Beatles, джинсы, американские сигареты, положение в обществе, гарантированное будущее... У них, казалось, было все, кроме одного — свободы. Цена этой свободы окажется слишком высока... Подлинная история о событиях 1983 года, когда шесть парней и одна девушка пытались угнать самолет с целью побега из СССР.

Sample
Тип релиза: WEB-DL 720p
Контейнер: MKV
Видео: MPEG4 AVC Video, H264, 16:9, 1280x480, 24 fps, 4019 kbps
Аудио: Russian (AC3, 6 ch, 384 kbps, 16 bits, 48.0 KHz) - оригинал
MediaInfo
General
Unique ID : 183738909518438236096039643217490202188 (0x8A3AD3A7CAE7113CB41B96EBFF41CE4C)
Complete name : D:\Заложники 2017 WEB-DL 720p.mkv
Format : Matroska
Format version : Version 2
File size : 3.26 GiB
Duration : 1h 43mn
Overall bit rate : 4 492 Kbps
Encoded date : UTC 2017-11-01 21:06:12
Writing application : mkvmerge v8.3.0 ('Over the Horizon') 64bit
Writing library : libebml v1.3.1 + libmatroska v1.4.2
DURATION : 01:43:49.824000000
NUMBER_OF_FRAMES : 194682
NUMBER_OF_BYTES : 299031552
_STATISTICS_WRITING_APP : mkvmerge v8.3.0 ('Over the Horizon') 64bit
_STATISTICS_WRITING_DATE_UTC : 2017-11-01 21:06:12
_STATISTICS_TAGS : BPS DURATION NUMBER_OF_FRAMES NUMBER_OF_BYTES
Video
ID : 1
Format : AVC
Format/Info : Advanced Video Codec
Format profile : Main@L3.1
Format settings, CABAC : No
Format settings, ReFrames : 2 frames
Codec ID : V_MPEG4/ISO/AVC
Duration : 1h 43mn
Bit rate : 4 019 Kbps
Width : 1 280 pixels
Height : 480 pixels
Display aspect ratio : 2.667
Frame rate mode : Constant
Frame rate : 24.000 fps
Color space : YUV
Chroma subsampling : 4:2:0
Bit depth : 8 bits
Scan type : Progressive
Bits/(Pixel*Frame) : 0.273
Stream size : 2.91 GiB (89%)
Language : English
Default : Yes
Forced : No
Color primaries : BT.709
Transfer characteristics : BT.709
Matrix coefficients : BT.709
Audio
ID : 2
Format : AC-3
Format/Info : Audio Coding 3
Mode extension : CM (complete main)
Format settings, Endianness : Big
Codec ID : A_AC3
Duration : 1h 43mn
Bit rate mode : Constant
Bit rate : 384 Kbps
Channel count : 6 channels
Channel positions : Front: L C R, Side: L R, LFE
Sampling rate : 48.0 KHz
Bit depth : 16 bits
Compression mode : Lossy
Stream size : 285 MiB (9%)
Language : Russian
Default : Yes
Forced : No
Menu
00:00:00.000 : en:Глава 1
00:04:44.291 : en:Глава 2
00:11:06.291 : en:Глава 3
00:16:56.791 : en:Глава 4
00:22:46.541 : en:Глава 5
00:27:36.624 : en:Глава 6
00:34:28.040 : en:Глава 7
00:38:45.873 : en:Глава 8
00:45:03.039 : en:Глава 9
00:52:34.414 : en:Глава 10
00:56:33.580 : en:Глава 11
01:02:31.621 : en:Глава 12
01:10:06.746 : en:Глава 13
01:17:08.912 : en:Глава 14
01:23:19.787 : en:Глава 15
01:31:24.912 : en:Глава 16
Скриншоты
Download
Чтобы скачать .torrent файл необходима регистрация
Сайт не распространяет и не хранит электронные версии произведений, а лишь предоставляет доступ к создаваемому пользователями каталогу ссылок на торрент-файлы, которые содержат только списки хеш-сумм
[Профиль]  [ЛС] 

vsv1v1

Top Seed 02* 80r

Стаж: 9 лет 3 месяца

Сообщений: 954

vsv1v1 · 02-Ноя-17 19:19 (спустя 6 часов)

[Цитировать] 

последний скрин, как споллер уже,зря добавили! значит вальнут пилота или стюардессу! и как фильм? интересный?
[Профиль]  [ЛС] 

Pigy

Хранитель

Стаж: 9 лет

Сообщений: 1145

Pigy · 02-Ноя-17 22:45 (спустя 3 часа, ред. 02-Ноя-17 22:45)

[Цитировать] 

vsv1v1 писал(а):
74143248последний скрин, как споллер уже,зря добавили!....
Спойлер это скорее ваш коммент о том кого вальнут. Я вот например ждал фильм и исходя из скриншотов, пока их делал никакого спойлера для себя не словил.
[Профиль]  [ЛС] 

vsv1v1

Top Seed 02* 80r

Стаж: 9 лет 3 месяца

Сообщений: 954

vsv1v1 · 03-Ноя-17 14:54 (спустя 16 часов, ред. 03-Ноя-17 14:54)

[Цитировать] 

Pigy писал(а):
74144590
vsv1v1 писал(а):
74143248последний скрин, как споллер уже,зря добавили!....
Спойлер это скорее ваш коммент о том кого вальнут. Я вот например ждал фильм и исходя из скриншотов, пока их делал никакого спойлера для себя не словил.
ну мой коммент не споллер,так как фильм я ещё не смотрел и только предположил)
[Профиль]  [ЛС] 

cedr

Admin gray

Стаж: 9 лет 7 месяцев

Сообщений: 28847

cedr · 04-Ноя-17 16:59 (спустя 1 день 2 часа)

[Цитировать] 

Будет блюр
T временная

[Профиль]  [ЛС] 
 
Ответить
Loading...
Error