Адрес РуТрекера для пользователей РФ - MainTracker.org

Расскажи друзьям:  

Адвокат / Сезон: 9 / Серии: 1-40 из 40 (Юрий Попович, Сергей Репецкий, Исаак Пятницкий) [2017, Детектив, драма, WEBRip]

Страницы:  1

Ответить
Автор
Сообщение

Сибиряк777

Top Seed 05* 640r

Стаж: 9 лет 4 месяца

Сообщений: 2488

Сибиряк777 · 03-Окт-17 18:35 (3 месяца 20 дней назад, ред. 13-Янв-18 03:55)

Адвокат

Год выпуска: 2017
Производство: Мотор Фильм Студия
Жанр: Детектив, драма
Продолжительность: 00:46:54
Субтитры: нет
Режиссёр: Юрий Попович, Сергей Репецкий, Исаак Пятницкий
В ролях: Андрей Соколов, Татьяна Черкасова, Алина Носуленко, Лада Аукштыкальнис, Дмитрий Ермак, Кирилл Дубровицкий, Денис Дружинин, Александра Верхошанская, Сергей Померанцев, Денис Нагретдинов
Описание: Главный герой сериала — принципиальный и неподкупный адвокат по уголовным делам Алексей Зимин — в очередной раз берется за, казалось бы, безнадежные дела и… выигрывает их! Каждое требует от Зимина честного и принципиального подхода, бесстрашия и готовности идти на риск, ведь правосудие для него важнее любых денег, а интересы клиента — превыше всего. У адвоката Алексея Зимина есть все, чтобы нравится женщинам, но даже в любви у него — свои принципы. Его верные помощники готовы разобраться во всех запутанных делах, которые потребуют от них нешуточной смелости, ведь расследования могут подвергнуть опасности не только их жизни, но и судьбы их близких.
Все раздачи сериала / Сэмпл
Релиз группа:
Качество: WEBRip
Формат: AVI
Видео кодек: XviD
Аудио кодек: AC3
Видео: 720x400 (16:9), 25.000 fps, XviD build 73, 1579 Kbps, 0.20 Bits/Pixel
Аудио: 48 kHz, AC3 Dolby Digital, 2 ch, 192 Kbps
Реклама: Нет
MI
General
Complete name : Downloads\Advokat.09.2017.WEB-DLRip
Format : AVI
Format/Info : Audio Video Interleave
File size : 597 MiB
Duration : 46mn 54s
Overall bit rate : 1 781 Kbps
Writing application : VirtualDubMod 1.5.10.3 | www.virtualdub-fr.org || (build 2550/release)
Writing library : VirtualDubMod build 2550/release
Video #0
ID : 0
Format : MPEG-4 Visual
Format profile : Advanced Simple@L5
Format settings, BVOP : 1
Format settings, QPel : No
Format settings, GMC : No warppoints
Format settings, Matrix : Custom
Codec ID : XVID
Codec ID/Hint : XviD
Duration : 46mn 54s
Bit rate : 1 579 Kbps
Width : 720 pixels
Height : 400 pixels
Display aspect ratio : 16:9
Frame rate : 25.000 fps
Color space : YUV
Chroma subsampling : 4:2:0
Bit depth : 8 bits
Scan type : Progressive
Compression mode : Lossy
Bits/(Pixel*Frame) : 0.219
Stream size : 530 MiB (89%)
Writing library : XviD 73
Audio #1
ID : 1
Format : AC-3
Format/Info : Audio Coding 3
Mode extension : CM (complete main)
Format settings, Endianness : Big
Codec ID : 2000
Duration : 46mn 54s
Bit rate mode : Constant
Bit rate : 192 Kbps
Channel(s) : 2 channels
Channel positions : Front: L R
Sampling rate : 48.0 KHz
Bit depth : 16 bits
Compression mode : Lossy
Stream size : 64.4 MiB (11%)
Alignment : Split accross interleaves
Interleave, duration : 40 ms (1.00 video frame)
Interleave, preload duration : 500 ms
Скриншоты
Внимание! Раздача ведётся путём добавления новых серий:
(1) остановить скачивание,
(2) удалить старый торрент у себя из клиента (старые серии удалять не надо),
(3) скачать новый торрент и запустить его у себя в клиенте вместо старого, при этом указать клиенту путь в старую папку куда и должно происходить скачивание новых серий.
Ваш клиент при этом должен произвести хеширование (проверку) старой папки (если не производит сам - помогите ему сделать это), и будет докачивать только те серии которых у вас ещё нет. Старые серии при этом не удаляются, а продолжают раздаваться!
Eсли вы уже удалили старые серии, то предотвратить повторную закачку старых серий можно, отжав галочку в соответсвующих местах при запуске нового торрента. По возможности, желательно не удалять старые серии как можно дольше чтобы релизёр не столько продолжал раздавать старые серии, а смог сконцентрироваться на новых
.
Download
Чтобы скачать .torrent файл необходима регистрация
Сайт не распространяет и не хранит электронные версии произведений, а лишь предоставляет доступ к создаваемому пользователями каталогу ссылок на торрент-файлы, которые содержат только списки хеш-сумм
[Профиль]  [ЛС] 
 

Vera23329

Стаж: 10 лет 10 месяцев

Сообщений: 120


Vera23329 · 13-Окт-17 13:09 (спустя 9 дней)

[Цитировать] 

Всегда была поклонницей этого сериала, но в этом сезоне его любовные похождения просто смешно смотреть. Мне кажется Зимину быть в этой роли тоже не нравится.
[Профиль]  [ЛС] 

miss.liza

Стаж: 4 года 5 месяцев

Сообщений: 6

miss.liza · 19-Окт-17 06:23 (спустя 5 дней)

[Цитировать] 

как-то непонятно сезон начался. в последней серии 8 сезона концовка не вяжется с началом 9 сезона. в общем, на колу мочало начинай сначала.
[Профиль]  [ЛС] 

voov-igor

Стаж: 7 лет 9 месяцев

Сообщений: 13

voov-igor · 19-Окт-17 08:20 (спустя 1 час 56 мин.)

[Цитировать] 

А в википедии 9 сезон почему-то 30 серий. Никто не знает, что за ерунда получается ?
[Профиль]  [ЛС] 

Сибиряк777

Top Seed 05* 640r

Стаж: 9 лет 4 месяца

Сообщений: 2488

Сибиряк777 · 19-Окт-17 16:00 (спустя 7 часов)

[Цитировать] 

voov-igor
У НТВ бывает такое поживём увидем, мож еще пару серий накинут.
[Профиль]  [ЛС] 

kovaignata

Стаж: 7 лет 11 месяцев

Сообщений: 11


kovaignata · 22-Окт-17 00:13 (спустя 2 дня 8 часов)

[Цитировать] 

Здравствуйте !!!А кто-то смотрел ? Я записала и было что-то со звуком !!!Тут как ?
[Профиль]  [ЛС] 

ansmjl

Стаж: 4 года 10 месяцев

Сообщений: 43


ansmjl · 22-Окт-17 17:07 (спустя 16 часов)

[Цитировать] 

Согласна с miss.liza иVera 2 . . . Сериал похуже предыдущих. Но посмотреть один раз можно.
Спасибо!
[Профиль]  [ЛС] 

Сибиряк777

Top Seed 05* 640r

Стаж: 9 лет 4 месяца

Сообщений: 2488

Сибиряк777 · 09-Янв-18 20:45 (спустя 2 месяца 18 дней)

[Цитировать] 

+28
[Профиль]  [ЛС] 

Кирилл1502

Стаж: 7 лет 4 месяца

Сообщений: 117


Кирилл1502 · 10-Янв-18 21:45 (спустя 1 день 1 час)

[Цитировать] 

Спасибо. Мать очень ждёт новых серий
[Профиль]  [ЛС] 

Сибиряк777

Top Seed 05* 640r

Стаж: 9 лет 4 месяца

Сообщений: 2488

Сибиряк777 · 13-Янв-18 03:56 (спустя 2 дня 6 часов, ред. 13-Янв-18 03:56)

[Цитировать] 

Последние серии. Полный сезон
[Профиль]  [ЛС] 

vitaliob

Стаж: 8 лет 3 месяца

Сообщений: 69

vitaliob · 13-Янв-18 04:18 (спустя 22 мин.)

[Цитировать] 

Vera23329 писал(а):
74006518Всегда была поклонницей этого сериала, но в этом сезоне его любовные похождения просто смешно смотреть. Мне кажется Зимину быть в этой роли тоже не нравится.
А он и есть такой на самом деле.Своё настоящее лицо показал.
[Профиль]  [ЛС] 
 
Ответить
Loading...
Error