Адрес РуТрекера для пользователей РФ - MainTracker.org

Расскажи друзьям:  

Eminem ft Rihanna - The Monster [2013, Master, 1080p]

Страницы:  1

Ответить
Автор
Сообщение

Zidris

Стаж: 5 лет 10 месяцев

Сообщений: 76

Zidris · 27-Авг-17 18:09 (5 месяцев назад, ред. 27-Авг-17 18:15)

Eminem ft Rihanna - The Monster
Жанр: Rap, Hip-Hop, R'n'B
Продолжительность: 00.05.18
Год выпуска: 2013
Качество: Master
Разрешение видео/развертка: 1080p
Контейнер: MOV
Видео кодек: ProRes
Аудио кодек: PCM
Видео: APCH, 1920*1080p, 171 Mbps, 23,976 fps
Аудио: PCM, 1411,2 kb/s, 44,1 KHz, 2 channels
Отчёт MediaInfo / BDInfo
Общее
Полное имя : G:\Eminem ft Rihanna - The Monster .mov
Формат : MPEG-4
Профиль формата : QuickTime
Идентификатор кодека : qt 2005.03 (qt )
Размер файла : 6,34 Гбайт
Продолжительность : 5 м. 18 с.
Режим общего битрейта : Переменный
Общий поток : 171 Мбит/сек
Дата кодирования : UTC 2016-07-01 05:33:57
Дата пометки : UTC 2016-07-01 05:34:43
Библиотека кодирования : Apple QuickTime
Media/UUID : 68368425-909F-4A27-8EE9-98C4C59F6E8E
com.apple.quicktime.player.movie.audio.g : 7.7.6 (Dev)
com.apple.quicktime.player.movie.audio.t : 7.7.6 (1680.95.31)
com.apple.quicktime.player.movie.visual. : (Binary)
©TIM : 00:59:50:00
©TSC : 24000
©TSZ : 1001
Видео
Идентификатор : 1
Формат : ProRes
Версия формата : Version 0
Профиль формата : 422 HQ
Идентификатор кодека : apch
Продолжительность : 5 м. 18 с.
Вид битрейта : Переменный
Битрейт : 170 Мбит/сек
Ширина : 1920 пикселей
Width_CleanAperture/String : 1920 пикселей
Высота : 1080 пикселей
Height_CleanAperture/String : 1080 пикселей
Соотношение сторон : 16:9
DisplayAspectRatio_CleanAperture/String : 16:9
Режим частоты кадров : Постоянный
Частота кадров : 23,976 (24000/1001) кадра/сек
Цветовое пространство : YUV
Субдискретизация насыщенности : 4:2:2
Тип развёртки : Прогрессивная
Бит/(Пиксели*Кадры) : 3.410
Размер потока : 6,28 Гбайт (99%)
Библиотека кодирования : Apple
Язык : English
Дата кодирования : UTC 2013-12-18 02:48:22
Дата пометки : UTC 2016-07-01 05:34:43
Основные цвета : BT.709
Характеристики трансфера : BT.709
Коэффициенты матрицы : BT.709
Аудио
Идентификатор : 5
Формат : PCM
Параметр Endianness формата : Little
Параметр Sign формата : Signed
Идентификатор кодека : sowt
Продолжительность : 5 м. 18 с.
Вид битрейта : Постоянный
Битрейт : 1411,2 Кбит/сек
Каналы : 2 канала
Расположение каналов : Front: L R
Частота : 44,1 КГц
Битовая глубина : 16 бит
Размер потока : 53,6 Мбайт (1%)
Язык : English
Дата кодирования : UTC 2016-07-01 05:33:45
Дата пометки : UTC 2016-07-01 05:34:43
Текст #1
Идентификатор : 4-CC1
Формат : EIA-608
Режим смешивания : Final Cut / CDP
Идентификатор кодека : c708
Продолжительность : 5 м. 18 с.
Вид битрейта : Постоянный
Размер потока : 0,00 байт (0%)
Язык : English
Forced : Нет
Дата кодирования : UTC 2013-12-18 02:48:22
Дата пометки : UTC 2016-07-01 05:34:43
CaptionServiceName : CC1
Текст #2
Идентификатор : 4-1
Формат : EIA-708
Режим смешивания : Final Cut / CDP
Идентификатор кодека : c708
Продолжительность : 5 м. 18 с.
Вид битрейта : Постоянный
Размер потока : 0,00 байт (0%)
Язык : English
Forced : Нет
Дата кодирования : UTC 2013-12-18 02:48:22
Дата пометки : UTC 2016-07-01 05:34:43
Прочее
Идентификатор : 3
Тип : Time code
Формат : QuickTime TC
Продолжительность : 5 м. 18 с.
Временной код первого кадра : 00:59:50:00
Временной код, чередующийся : Да
Язык : English
Дата кодирования : UTC 2013-12-18 02:48:22
Дата пометки : UTC 2016-07-01 05:34:43
Скриншоты
Download
Чтобы скачать .torrent файл необходима регистрация
Сайт не распространяет и не хранит электронные версии произведений, а лишь предоставляет доступ к создаваемому пользователями каталогу ссылок на торрент-файлы, которые содержат только списки хеш-сумм
[Профиль]  [ЛС] 
 
 
Ответить
Loading...
Error