Адрес РуТрекера для пользователей РФ - MainTracker.org

Расскажи друзьям:  

[iPad] Холодное танго (Павел Чухрай) [2017, Россия, Мелодрама, военный, драма, история, WEB-DLRip, SD (576p)] Original

Страницы:  1

Ответить
Автор
Сообщение

pk5360114

Стаж: 8 лет 10 месяцев

Сообщений: 3465

pk5360114 · 28-Июл-17 13:59 (4 месяца 14 дней назад)

Холодное танго
-
6.587 / 10 / 10

Год выпуска: 2017
Страна: Россия
Жанр: Мелодрама, военный, драма, история
Продолжительность: 01:42:23
Перевод: Не требуется
Оригинальная аудиодорожка: Есть
Cубтитры: Нет
Режиссёр: Павел Чухрай
Сценарий: Павел Чухрай
Продюсер: Сабина Еремеева, Алексей Резникович
Оператор: Игорь Клебанов
Композитор: Юрий Потеенко
Художник: Юрий Григорович, Раймондас Дисиус, Северина Недельчук
В ролях: Юлия Пересильд, Риналь Мухаметов, Карина Каграманян, Сергей Гармаш, Елисей Никандров, Ася Громова, Моника Санторо, Валерия Ткаченко, Андрюс Бялобжескис, Мария Малиновская
Сборы в России: $408 718
Премьера (РФ): 22 июня 2017, «WDSSPR»
Описание: Он чудом избежал смерти, чтобы вернуться в дом, где родился. В дом, в котором теперь живет любовь всей его жизни. Но надежда на счастье оборачивается страшным открытием. Его возлюбленная — дочь его врага.
Качество исходника: WEB-DL 1080p
Качество: WEB-DLRip
Тип: SD (576p)
Контейнер: M4V
Видео: H.264, 1024x560, 1.85:1, 2 200 Kbps, 23.976 fps
Аудио: Русский/Оригинальная дорожка , AAC / 2.0 / 128 / 48.0 KHz


iTunes Meta Tags
Код:
Sort Name: Холодное танго
XID: Apple:vendor_id:2017-905032
contentID: 1257341630
Copyright: © 2017 All Media Company
Screenwriters: Павел Чухрай
Producers: Сабина Еремеева, Алексей Резникович
Director: Павел Чухрай
Cast: Юлия Пересильд, Риналь Мухаметов, Карина Каграманян, Сергей Гармаш, Елисей Никандров, Ася Громова, Моника Санторо, Валерия Ткаченко, Андрюс Бялобжескис, Мария Малиновская
Studio: Кинокомпания «Слон»
Rating: 135
Long Description: Он чудом избежал смерти, чтобы вернуться в дом, где родился. В дом, в котором теперь живет любовь всей его жизни. Но надежда на счастье оборачивается страшным открытием. Его возлюбленная - дочь его врага.
Description: Он чудом избежал смерти, чтобы вернуться в дом, где родился. В дом, в котором теперь живет любовь всей его жизни. Но надежда на счастье оборачивается страшным открытием. Его возлюбленная - дочь его врага.
Release Date: 2017-01-01T08:00:00Z
Genre: Русское кино
Artist: Павел Чухрай
Name: Холодное танго
MediaInfo
Код:
General
Complete name : /Users/imac/HandBrake/Kholodnoe.tango.(576p).(pk).m4v
Format : MPEG-4
Codec ID : M4V
File size : 1.67 GiB
Duration : 1h 42mn
Overall bit rate mode : Variable
Overall bit rate : 2 332 Kbps
Movie name : Холодное танго
Performer : Павел Чухрай
Director : Павел Чухрай
Actor : Юлия Пересильд / Риналь Мухаметов / Карина Каграманян / Сергей Гармаш / Елисей Никандров / Ася Громова / Моника Санторо / Валерия Ткаченко / Андрюс Бялобжескис / Мария Малиновская
Screenplay by : Павел Чухрай
Producer : Сабина Еремеева / Алексей Резникович
Production studio : Кинокомпания «Слон»
Genre : Русское кино
ContentType : Short Film
Description : Он чудом избежал смерти, чтобы вернуться в дом, где родился. В дом, в котором теперь живет любовь всей его жизни. Но надежда на счастье оборачивается страшным открытием. Его возлюбленная - дочь его врага.
Recorded date : UTC 2017-01-01 08:00:00
Encoded date : UTC 2017-07-28 10:47:58
Tagged date : UTC 2017-07-28 10:53:05
Copyright : © 2017 All Media Company
Cover : Yes
Rating : None
Title/Sort : Холодное танго
LongDescription : Он чудом избежал смерти, чтобы вернуться в дом, где родился. В дом, в котором теперь живет любовь всей его жизни. Но надежда на счастье оборачивается страшным открытием. Его возлюбленная - дочь его врага.
AppleStoreCatalogID : 1257341630
Vendor : Apple:vendor_id:2017-905032
ContentRating : ru-movie|16+|375|
Video #1
ID : 1
Format : AVC
Format/Info : Advanced Video Codec
Format profile : High@L3.2
Format settings, CABAC : Yes
Format settings, ReFrames : 9 frames
Codec ID : avc1
Codec ID/Info : Advanced Video Coding
Duration : 1h 42mn
Source duration : 1h 42mn
Bit rate : 2 200 Kbps
Width : 1 024 pixels
Height : 560 pixels
Display aspect ratio : 1.85:1
Frame rate mode : Variable
Frame rate : 23.976 fps
Minimum frame rate : 23.974 fps
Maximum frame rate : 23.981 fps
Color space : YUV
Chroma subsampling : 4:2:0
Bit depth : 8 bits
Scan type : Progressive
Bits/(Pixel*Frame) : 0.160
Stream size : 1.57 GiB (94%)
Source stream size : 1.57 GiB (94%)
Title : Main Program
Writing library : x264 core 148 r2708 86b7198
Encoding settings : cabac=1 / ref=9 / deblock=1:0:0 / analyse=0x3:0x113 / me=umh / subme=9 / psy=1 / psy_rd=1.00:0.00 / mixed_ref=1 / me_range=32 / chroma_me=1 / trellis=1 / 8x8dct=1 / cqm=0 / deadzone=21,11 / fast_pskip=1 / chroma_qp_offset=-2 / threads=17 / lookahead_threads=1 / sliced_threads=0 / nr=0 / decimate=1 / interlaced=0 / bluray_compat=0 / constrained_intra=0 / bframes=6 / b_pyramid=2 / b_adapt=2 / b_bias=0 / direct=1 / weightb=1 / open_gop=0 / weightp=2 / keyint=240 / keyint_min=24 / scenecut=40 / intra_refresh=0 / rc_lookahead=40 / rc=2pass / mbtree=1 / bitrate=2200 / ratetol=1.0 / qcomp=0.60 / qpmin=0 / qpmax=69 / qpstep=4 / cplxblur=20.0 / qblur=0.5 / ip_ratio=1.40 / aq=1:1.00
Language : Russian
Encoded date : UTC 2017-07-28 10:47:58
Tagged date : UTC 2017-07-28 10:48:02
Color range : Limited
Color primaries : BT.709
Transfer characteristics : BT.709
Matrix coefficients : BT.709
Video #2
ID : 4
Format : JPEG
Codec ID : jpeg
Duration : 1h 42mn
Bit rate mode : Variable
Bit rate : 749 bps
Width : 640 pixels
Height : 350 pixels
Display aspect ratio : 1.85:1
Frame rate mode : Variable
Frame rate : 0.002 fps
Minimum frame rate : 0.001 fps
Maximum frame rate : 0.003 fps
Color space : YUV
Chroma subsampling : 4:2:0
Bit depth : 8 bits
Compression mode : Lossy
Bits/(Pixel*Frame) : 1.672
Stream size : 686 KiB (0%)
Title : Chapter Images
Language : Russian
Encoded date : UTC 2017-07-28 10:48:07
Tagged date : UTC 2017-07-28 10:48:08
Audio
ID : 2
Format : AAC
Format/Info : Advanced Audio Codec
Format profile : LC
Codec ID : 40
Duration : 1h 42mn
Bit rate mode : Variable
Bit rate : 126 Kbps
Maximum bit rate : 193 Kbps
Channel(s) : 2 channels
Channel positions : Front: L R
Sampling rate : 48.0 KHz
Compression mode : Lossy
Stream size : 92.2 MiB (5%)
Title : Russian Stereo
Language : Russian
Encoded date : UTC 2017-07-28 10:47:58
Tagged date : UTC 2017-07-28 10:48:04
Menu #1
00:00:00.000 : 1
00:05:23.640 : 2
00:10:57.919 : 3
00:16:19.920 : 4
00:23:03.000 : 5
00:29:12.400 : 6
00:35:19.560 : 7
00:43:45.280 : 8
00:48:43.680 : 9
00:55:32.920 : 10
01:02:02.320 : 11
01:09:34.959 : 12
01:15:58.240 : 13
01:22:18.160 : 14
01:28:25.800 : 15
Menu #2
ID : 3
Codec ID : text
Duration : 1h 42mn
Language : Russian
Encoded date : UTC 2017-07-28 10:48:04
Tagged date : UTC 2017-07-28 10:48:04
00:00:00.000 : 1
00:05:23.640 : 2
00:10:57.919 : 3
00:16:19.920 : 4
00:23:03.000 : 5
00:29:12.400 : 6
00:35:19.560 : 7
00:43:45.280 : 8
00:48:43.680 : 9
00:55:32.920 : 10
01:02:02.320 : 11
01:09:34.959 : 12
01:15:58.240 : 13
01:22:18.160 : 14
01:28:25.800 : 15
Bit rate mode : VBR
x264 лог
Код:
x264 [info]: frame I:1172  Avg QP:14.33  size: 86094
x264 [info]: frame P:37663 Avg QP:17.11  size: 24158
x264 [info]: frame B:108472 Avg QP:19.44  size:  6246
x264 [info]: consecutive B-frames:  2.2%  4.4%  8.6% 54.3% 16.9%  9.9%  3.7%
x264 [info]: mb I  I16..4: 10.7% 65.9% 23.4%
x264 [info]: mb P  I16..4:  1.0%  7.3%  1.9%  P16..4: 39.3% 25.6% 15.0%  0.0%  0.0%    skip: 9.9%
x264 [info]: mb B  I16..4:  0.1%  0.6%  0.2%  B16..8: 39.0%  8.1%  2.2%  direct: 3.6%  skip:46.2%  L0:40.6% L1:49.2% BI:10.3%
x264 [info]: 8x8 transform intra:69.9% inter:69.2%
x264 [info]: coded y,uvDC,uvAC intra: 87.8% 83.0% 56.8% inter: 23.1% 18.4% 3.8%
x264 [info]: i16 v,h,dc,p: 30% 13%  8% 50%
x264 [info]: i8 v,h,dc,ddl,ddr,vr,hd,vl,hu: 10%  9%  4%  9% 14% 14% 14% 12% 13%
x264 [info]: i4 v,h,dc,ddl,ddr,vr,hd,vl,hu: 10% 10%  2%  9% 14% 14% 15% 11% 15%
x264 [info]: i8c dc,h,v,p: 42% 24% 19% 16%
x264 [info]: Weighted P-Frames: Y:2.1% UV:0.5%
x264 [info]: ref P L0: 56.7% 10.7% 15.5%  5.3%  4.0%  2.8%  2.4%  1.3%  1.3%  0.1%  0.0%
x264 [info]: ref B L0: 80.7%  9.5%  4.4%  1.9%  1.3%  1.1%  0.7%  0.3%
x264 [info]: ref B L1: 96.0%  4.0%
x264 [info]: kb/s:2198.28
Скриншоты



Релиз подготовлен для просмотра на Apple TV, iPad, iPhone, iPod Touch.
Для просмотра данного релиза на компьютере с ОС Windows рекомендуется использовать VLC media player
Download
Чтобы скачать .torrent файл необходима регистрация
Сайт не распространяет и не хранит электронные версии произведений, а лишь предоставляет доступ к создаваемому пользователями каталогу ссылок на торрент-файлы, которые содержат только списки хеш-сумм
[Профиль]  [ЛС] 

aluf44

Стаж: 7 лет

Сообщений: 8


aluf44 · 06-Сен-17 00:51 (спустя 1 месяц 8 дней)

[Цитировать] 

как обычно раздули из жидов несчастных .... а потом сделали их же героями !!!!
аж воротит от таких фильмов ! хуже не придумаешь !
и на закуску еще и Россию сделали виноватой во всех смертных грехах ! .....
По моему мнению я бы подобное дер*мо не допускал бы ни в коем разе на Русских просторах !!!!
[Профиль]  [ЛС] 
 
Ответить
Loading...
Error