Адрес РуТрекера для пользователей РФ - MainTracker.org

Расскажи друзьям:  

Идиот / Серии: 1-10 из 10 (Владимир Бортко) [2003, драма, мелодрама, экранизация, DVDRip-AVC]

Страницы:  1

Ответить
Автор
Сообщение

Harry Palmer

Стаж: 9 лет 9 месяцев

Сообщений: 1171

Harry Palmer · 16-Июл-17 22:57 (6 месяцев назад, ред. 16-Июл-17 23:05)

Идиот
Год выпуска: 2003
Производство: Кинокомпания "Телефильм"
Жанр: драма, мелодрама, экранизация
Продолжительность: 10 x ~ 00:50:00
Субтитры: Нет
Режиссёр: Владимир Бортко
В ролях: Евгений Миронов, Владимир Машков, Лидия Вележева, Ольга Будина, Инна Чурикова, Олег Басилашвили, Владимир Ильин, Александр Лазарев (мл.), Андрей Смирнов, Анастасия Мельникова, Росина Цидулко, Сергей Мучеников, Алексей Петренко, Михаил Боярский, Лариса Малеванная, Мария Киселева, Михаил Аракчеев, Борис Бирман, Константин Воробьёв, Наталья Михайлова, Владимир Колганов, Александр Домогаров, Ромуальд Макаренко, Евгений Семёнов, Олег Велединский
Описание: Князь Мышкин возвращается в Россию из Швейцарии, где он проходил лечение в психиатрической клинике. В поезде, по дороге в Петербург, князь знакомится с Парфеном Рогожиным, который рассказывает ему о своей страстной любви к Настасье Филипповне, бывшей содержанке миллионера Тоцкого. В Петербурге князь попадает в дом своей дальней родственницы - генеральши Еланчиной, знакомится с ее мужем, их дочерьми, а также секретарем генерала Ганей Иволгиным. Случайно увиденный на столе у генерала портрет Настасьи Филипповны производит на князя большое впечатление...
Реклама: Нет
Все раздачи сериала: Идиот
Сэмпл: http://multi-up.com/1161144
Качество: DVDRip-AVC
Формат: MKV
Видео кодек: H.264
Аудио кодек: AC3, DTS
Видео: MPEG-4 (AVC), 704x444@752x444, 25 fps, ~1800 kbps, ~0.23 bit/pixel
Аудио: AC3, 48.0 kHz, 6 ch, 448 kb/s; DTS, 48.0 kHz, 6 ch, 1510 kb/s
MI
General
Unique ID : 196530142484402698559049567152811191546 (0x93DA5421A7C6084AA243540C8D72ACFA)
Complete name : \Идиот\Идиот (01 сер.).mkv
Format : Matroska
Format version : Version 4 / Version 2
File size : 1.33 GiB
Duration : 50 min 29 s
Overall bit rate : 3 760 kb/s
Encoded date : UTC 2017-06-22 07:11:27
Writing application : mkvmerge v8.3.0 ('Over the Horizon') 32bit
Writing library : libebml v1.3.1 + libmatroska v1.4.2
Video
ID : 1
Format : AVC
Format/Info : Advanced Video Codec
Format profile : High@L3
Format settings, CABAC : Yes
Format settings, ReFrames : 4 frames
Codec ID : V_MPEG4/ISO/AVC
Duration : 50 min 29 s
Bit rate : 1 800 kb/s
Width : 704 pixels
Height : 444 pixels
Display aspect ratio : 5:3
Frame rate mode : Constant
Frame rate : 25.000 FPS
Color space : YUV
Chroma subsampling : 4:2:0
Bit depth : 8 bits
Scan type : Progressive
Bits/(Pixel*Frame) : 0.230
Stream size : 650 MiB (48%)
Writing library : x264 core 146 r2538 121396c
Encoding settings : cabac=1 / ref=3 / deblock=1:0:0 / analyse=0x3:0x113 / me=umh / subme=7 / psy=1 / psy_rd=1.00:0.00 / mixed_ref=1 / me_range=16 / chroma_me=1 / trellis=1 / 8x8dct=1 / cqm=0 / deadzone=21,11 / fast_pskip=1 / chroma_qp_offset=-2 / threads=4 / lookahead_threads=1 / sliced_threads=0 / nr=0 / decimate=1 / interlaced=0 / bluray_compat=0 / stitchable=1 / constrained_intra=0 / bframes=3 / b_pyramid=2 / b_adapt=1 / b_bias=0 / direct=1 / weightb=1 / open_gop=0 / weightp=2 / keyint=250 / keyint_min=25 / scenecut=40 / intra_refresh=0 / rc_lookahead=40 / rc=2pass / mbtree=1 / bitrate=1800 / ratetol=1.0 / qcomp=0.60 / qpmin=0 / qpmax=69 / qpstep=4 / cplxblur=20.0 / qblur=0.5 / ip_ratio=1.40 / aq=1:1.00
Default : Yes
Forced : No
Audio #1
ID : 2
Format : AC-3
Format/Info : Audio Coding 3
Format settings, Endianness : Big
Codec ID : A_AC3
Duration : 50 min 29 s
Bit rate mode : Constant
Bit rate : 448 kb/s
Channel(s) : 6 channels
Channel positions : Front: L C R, Side: L R, LFE
Sampling rate : 48.0 kHz
Frame rate : 31.250 FPS (1536 spf)
Bit depth : 16 bits
Compression mode : Lossy
Stream size : 162 MiB (12%)
Service kind : Complete Main
Default : Yes
Forced : No
Audio #2
ID : 3
Format : DTS
Format/Info : Digital Theater Systems
Mode : 16
Format settings, Endianness : Big
Codec ID : A_DTS
Duration : 50 min 29 s
Bit rate mode : Constant
Bit rate : 1 510 kb/s
Channel(s) : 6 channels
Channel positions : Front: L C R, Side: L R, LFE
Sampling rate : 48.0 kHz
Frame rate : 93.750 FPS (512 spf)
Bit depth : 24 bits
Compression mode : Lossy
Stream size : 545 MiB (40%)
Default : No
Forced : No
Скриншоты
Download
Чтобы скачать .torrent файл необходима регистрация
Сайт не распространяет и не хранит электронные версии произведений, а лишь предоставляет доступ к создаваемому пользователями каталогу ссылок на торрент-файлы, которые содержат только списки хеш-сумм
[Профиль]  [ЛС] 
 

Harry Palmer

Стаж: 9 лет 9 месяцев

Сообщений: 1171

Harry Palmer · 16-Июл-17 22:58 (спустя 59 сек.)

[Цитировать] 

Сравнение с DVDRip-AVC: http://screenshotcomparison.com/comparison/215626 В той раздаче недокроп, замыленная картинка и пережатый звук. Кроме того, похоже что там апскейл, так как ни с одного DVD (PAL) 720 пикселей по ширине никак не получается.
Сравнение с DVDRip-AVC: http://screenshotcomparison.com/comparison/215627 Та же самая история: недокроп, замыленная картинка, пережатый звук.
[Профиль]  [ЛС] 

Sunbl1nd

Стаж: 8 лет 5 месяцев

Сообщений: 377


Sunbl1nd · 21-Июл-17 11:21 (спустя 4 дня)

[Цитировать] 

Скажите, титры в каждой серии полностью записаны? Если до, то это одна из лучших раздач.
[Профиль]  [ЛС] 

Harry Palmer

Стаж: 9 лет 9 месяцев

Сообщений: 1171

Harry Palmer · 21-Июл-17 12:18 (спустя 57 мин.)

[Цитировать] 

Sunbl1nd писал(а):
73548676Скажите, титры в каждой серии полностью записаны?
Что значит полностью? Надписи "Конец первой/второй/третьей... серии" есть везде, сейчас проверил на всякий случай. Или должно быть ещё что-нибудь?
[Профиль]  [ЛС] 

Sunbl1nd

Стаж: 8 лет 5 месяцев

Сообщений: 377


Sunbl1nd · 22-Июл-17 00:19 (спустя 12 часов)

[Цитировать] 

Имеется в виду полностью звучит музыка в конце каждой серии. Большое спасибо за Бандитский Петербург 2: Адвокат. В вашей раздаче все так как я и ожидал. Так что будем скачивать и скачивать. Большое спасибо!!!
Ожидаю, еще телесериал Повторение пройденного и Русский перевод. Поверьте такого мастера, как Игорь Корнелюк, музыка достойного того, чтобы прозвучала полностью после каждой серии, если это конечно возможно.
[Профиль]  [ЛС] 

petrick2

Стаж: 4 года 11 месяцев

Сообщений: 149

petrick2 · 16-Авг-17 13:37 (спустя 25 дней)

[Цитировать] 

Отличный сериал по русской классике!
Рекомендую к просмотру!
[Профиль]  [ЛС] 

jeanzzz

Стаж: 7 лет 3 месяца

Сообщений: 3


jeanzzz · 13-Янв-18 16:36 (спустя 4 месяца 28 дней, ред. 13-Янв-18 16:36)

[Цитировать] 

Качество фильма самое хорошее из доступных в интернете. Фильм всё-таки 2003 года, поэтому сложно ожидать HD. Но, повторюсь, это лучшее из того, что есть.
Приятно удивил формат картинки 16:9. Почти везде предлагается только 4:3. Звук тиховат, но не думаю, что это критично. Спасибо!
[Профиль]  [ЛС] 
 
Ответить
Loading...
Error