Адрес РуТрекера для пользователей РФ - MainTracker.org

Расскажи друзьям:  

Крым. Небо Родины (Наталия Гугуева) [2017, Документальное кино, HDTV 1080i]

Страницы:  1

Тема закрыта
Автор
Сообщение

Scorpman

VIP (Заслуженный)

Стаж: 10 лет 3 месяца

Сообщений: 3229

Scorpman · 13-Июн-17 08:15 (5 месяцев 8 дней назад, ред. 19-Июн-17 10:03)

Крым. Небо Родины

Год выпуска: 2017
Страна: Россия, Студия "Встреча"
Жанр: Документальное кино
Продолжительность: 01:31:45
Режиссер: Наталия Гугуева
Описание: Документальный фильм о военных лётчиках, которым пришлось сделать непростой выбор. С распадом СССР их полк вместе с Крымом отошёл Украине. Принять второй раз присягу новой стране или уйти с родного аэродрома на север, оставить квартиры и даже семью? А как быть, если в прицеле окажется самолёт бывшей союзной республики? Как воевать против бывших однополчан?
Качество: HDTV 1080i
Формат: MPEG-TS
Видео кодек: H.264
Аудио кодек: АС3
Видео: MPEG4 Video (H264) 1920x1080, 25fps, 5 956 Kbps
Аудио: 384 Kbps : 6сн : 48,0 КГц
Анонс
Скриншоты
МИ
General
ID : 1 (0x1)
Complete name : D:\Крым. Небо Родины_bySat.ts
Format : MPEG-TS
File size : 4.28 GiB
Duration : 1h 31mn
Overall bit rate mode : Variable
Overall bit rate : 6 674 Kbps
Video
ID : 205 (0xCD)
Menu ID : 1 (0x1)
Format : AVC
Format/Info : Advanced Video Codec
Format profile : High@L4.0
Format settings, CABAC : Yes
Format settings, ReFrames : 4 frames
Codec ID : 27
Duration : 1h 31mn
Bit rate : 5 956 Kbps
Width : 1 920 pixels
Height : 1 080 pixels
Display aspect ratio : 16:9
Frame rate : 25.000 fps
Standard : Component
Color space : YUV
Chroma subsampling : 4:2:0
Bit depth : 8 bits
Scan type : Interlaced
Scan order : Top Field First
Bits/(Pixel*Frame) : 0.115
Stream size : 3.82 GiB (89%)
Color primaries : BT.709
Transfer characteristics : BT.709
Matrix coefficients : BT.709
Audio
ID : 405 (0x195)
Menu ID : 1 (0x1)
Format : AC-3
Format/Info : Audio Coding 3
Mode extension : CM (complete main)
Format settings, Endianness : Big
Codec ID : 6
Duration : 1h 31mn
Bit rate mode : Constant
Bit rate : 384 Kbps
Channel(s) : 6 channels
Channel positions : Front: L C R, Side: L R, LFE
Sampling rate : 48.0 KHz
Bit depth : 16 bits
Compression mode : Lossy
Stream size : 252 MiB (6%)
Language : Russian
Text #1
ID : 505 (0x1F9)-100
Menu ID : 1 (0x1)
Format : Teletext
Language : Russian
Text #2
ID : 505 (0x1F9)-888
Menu ID : 1 (0x1)
Format : Teletext Subtitle
Language : Russian
Menu
ID : 256 (0x100)
Menu ID : 1 (0x1)
Duration : 1h 31mn
List : 205 (0xCD) (AVC) / 405 (0x195) (AC-3, Russian) / 505 (0x1F9) ()
Language : / Russian
Download
Чтобы скачать .torrent файл необходима регистрация
Сайт не распространяет и не хранит электронные версии произведений, а лишь предоставляет доступ к создаваемому пользователями каталогу ссылок на торрент-файлы, которые содержат только списки хеш-сумм
[Профиль]  [ЛС] 

bot · 19-Июн-17 08:08 (спустя 5 дней)

Тема была перенесена из форума Releasers (Оформление раздач) в форум Документальные (HD Video)
Scorpman
 
 
Тема закрыта
Loading...
Error