Адрес РуТрекера для пользователей РФ - MainTracker.org

Расскажи друзьям:  

Смертельные гонки 2050 / Death Race 2050 (Гилберт Джон / Gilbert John) [2017, США, фантастика, боевик, комедия, спорт, BDRip 720p] VO (М. Яроцкий) + Sub Eng + Original Eng

Страницы:  1

Ответить
Автор
Сообщение

pirs18

Top Seed 05* 640r

Стаж: 7 лет 9 месяцев

Сообщений: 2565

pirs18 · 09-Апр-17 11:30 (7 месяцев назад, ред. 09-Апр-17 11:44)

Смертельные гонки 2050 / Death Race 2050
Страна: США
Жанр: фантастика, боевик, комедия, спорт
Год выпуска: 2017
Продолжительность: 01:32:42

    Перевод: Одноголосый закадровый М. Яроцкий
    Субтитры: английские
    Оригинальная аудиодорожка: английский

      Режиссер: Гилберт Джон / Gilbert John

        В ролях: Ману Беннетт, Малкольм МакДауэлл, Марсия Миллер, Берт Гринстед, Фолаке Оловофойеку, Энесса Ремси, Янси Батлер, Чарли Фаррелл, Шэнна Олсон, Д.С. Дуглас
        Описание: «Смертельная гонка» — ежегодное национальное шоу Америки, активно рекламируемое президентом. Несколько экипажей, состоящих из водителя и штурмана, должны не только как можно быстрее пересечь США, но и набрать как можно больше очков. Очки же даются за сбитых пешеходов: 10 очков за взрослого, 20 за ребенка и 50 за престарелых граждан.

          Тип релиза: BDRip 720p
          Контейнер: MKV

            Видео: 1280x720 (16:9), 23,976 fps, MPEG-4 AVC, ~ 5519 kbps, 0.250 Bits/(Pixel*Frame)

              Аудио 1: Russian: 48 kHz/24-bit, DTS, 3/2 (L,C,R,l,r) + LFE ch, ~1509.00 kbps avg
              Аудио 2: English: 48 kHz/24-bit, DTS, 3/2 (L,C,R,l,r) + LFE ch, ~1509.00 kbps avg
              Дополнительно
              Цитата:
              Релиз HDCLUB.
              Сохранены оригинальные главы как на Blu-ray.
              За чистый голос Михаила Яроцкого спасибо Переулку Переводмана. Работа с дорожкой Переводман.
              MediaInfo
              Общее
              Уникальный идентификатор : 182956097620292324324939487055159267295 (0x89A4100C8D18EF0891AA6B5522E88FDF)
              Полное имя : D:\Death.Race.2050.BDRip.720p.mkv
              Формат : Matroska
              Версия формата : Version 2
              Размер файла : 5,64 Гбайт
              Продолжительность : 1 ч. 32 м.
              Общий поток : 8711 Кбит/сек
              Дата кодирования : UTC 2017-04-08 07:13:07
              Программа кодирования : mkvmerge v5.6.0 ('Kenya Kane') built on May 27 2012 16:44:04
              Библиотека кодирования : libebml v1.2.3 + libmatroska v1.3.0
              Обложка : Yes
              Attachments : cover.jpg / logfile.log
              Видео
              Идентификатор : 1
              Формат : AVC
              Формат/Информация : Advanced Video Codec
              Профиль формата : High@L4.1
              Параметр CABAC формата : Да
              Параметр ReFrames формата : 8 кадров
              Идентификатор кодека : V_MPEG4/ISO/AVC
              Продолжительность : 1 ч. 32 м.
              Битрейт : 5519 Кбит/сек
              Ширина : 1280 пикселей
              Высота : 720 пикселей
              Соотношение сторон : 16:9
              Режим частоты кадров : Постоянный
              Частота кадров : 23,976 (24000/1001) кадра/сек
              Цветовое пространство : YUV
              Субдискретизация насыщенности : 4:2:0
              Битовая глубина : 8 бит
              Тип развёртки : Прогрессивная
              Бит/(Пиксели*Кадры) : 0.250
              Размер потока : 3,57 Гбайт (63%)
              Библиотека кодирования : x264 core 148 r2744kMod b97ae06
              Настройки программы : cabac=1 / ref=8 / deblock=1:-3:-3 / analyse=0x3:0x133 / me=umh / subme=10 / psy=1 / fade_compensate=0.00 / psy_rd=1.00:0.00 / mixed_ref=1 / me_range=32 / chroma_me=1 / trellis=2 / 8x8dct=1 / cqm=0 / deadzone=21,11 / fast_pskip=0 / chroma_qp_offset=-2 / threads=12 / lookahead_threads=2 / sliced_threads=0 / nr=0 / decimate=0 / interlaced=0 / bluray_compat=0 / constrained_intra=0 / bframes=8 / b_pyramid=2 / b_adapt=2 / b_bias=0 / direct=3 / weightb=1 / open_gop=0 / weightp=2 / keyint=240 / keyint_min=23 / scenecut=40 / intra_refresh=0 / rc_lookahead=50 / rc=crf / mbtree=0 / crf=16.0000 / qcomp=0.60 / qpmin=0 / qpmax=69 / qpstep=4 / vbv_maxrate=62500 / vbv_bufsize=78125 / crf_max=0.0 / nal_hrd=none / filler=0 / ip_ratio=1.30 / pb_ratio=1.20 / aq=1:0.70
              Язык : English
              Default : Да
              Forced : Нет
              Аудио #1
              Идентификатор : 2
              Формат : DTS
              Формат/Информация : Digital Theater Systems
              Режим : 16
              Параметр Endianness формата : Big
              Идентификатор кодека : A_DTS
              Продолжительность : 1 ч. 32 м.
              Вид битрейта : Постоянный
              Битрейт : 1509 Кбит/сек
              Каналы : 6 каналов
              Расположение каналов : Front: L C R, Side: L R, LFE
              Частота : 48,0 КГц
              Частота кадров : 93,750 кадра/сек (512 spf)
              Битовая глубина : 24 бит
              Метод сжатия : С потерями
              Размер потока : 1001 Мбайт (17%)
              Язык : Russian
              Default : Да
              Forced : Нет
              Аудио #2
              Идентификатор : 3
              Формат : DTS
              Формат/Информация : Digital Theater Systems
              Режим : 16
              Параметр Endianness формата : Big
              Идентификатор кодека : A_DTS
              Продолжительность : 1 ч. 32 м.
              Вид битрейта : Постоянный
              Битрейт : 1509 Кбит/сек
              Каналы : 6 каналов
              Расположение каналов : Front: L C R, Side: L R, LFE
              Частота : 48,0 КГц
              Частота кадров : 93,750 кадра/сек (512 spf)
              Битовая глубина : 24 бит
              Метод сжатия : С потерями
              Размер потока : 1001 Мбайт (17%)
              Заголовок : English
              Язык : English
              Default : Нет
              Forced : Нет
              Текст
              Идентификатор : 4
              Формат : UTF-8
              Идентификатор кодека : S_TEXT/UTF8
              Идентификатор кодека/Информация : UTF-8 Plain Text
              Язык : English
              Default : Нет
              Forced : Нет
              Меню
              00:00:00.000 : :Chapter 01
              00:04:25.472 : :Chapter 02
              00:08:18.206 : :Chapter 03
              00:12:29.081 : :Chapter 04
              00:17:51.528 : :Chapter 05
              00:21:22.113 : :Chapter 06
              00:26:07.940 : :Chapter 07
              00:29:09.747 : :Chapter 08
              00:32:25.652 : :Chapter 09
              00:37:11.520 : :Chapter 10
              00:43:21.931 : :Chapter 11
              00:50:56.094 : :Chapter 12
              00:56:25.547 : :Chapter 13
              01:01:42.615 : :Chapter 14
              01:05:45.399 : :Chapter 15
              01:10:50.370 : :Chapter 16
              01:15:18.222 : :Chapter 17
              01:21:26.881 : :Chapter 18
              01:24:49.666 : :Chapter 19
              01:28:54.829 : :Chapter 20
              Скриншоты
              Download
              Чтобы скачать .torrent файл необходима регистрация
              Сайт не распространяет и не хранит электронные версии произведений, а лишь предоставляет доступ к создаваемому пользователями каталогу ссылок на торрент-файлы, которые содержат только списки хеш-сумм
              [Профиль]  [ЛС] 

              kit400

              Top User 50

              Стаж: 11 лет 7 месяцев

              Сообщений: 349

              kit400 · 13-Апр-17 08:28 (спустя 3 дня, ред. 13-Апр-17 08:28)

              [Цитировать] 

              >Очки же даются за сбитых пешеходов: 10 очков за взрослого, 20 за ребенка и 50 за престарелых граждан.
              Как-то неправильно: престарелого сбить - как два пальца, а дети люто уворачиваются!
              Думаю, именно поэтому IMDb: 3.60
              [Профиль]  [ЛС] 

              Yuric102

              Стаж: 1 год 1 месяц

              Сообщений: 5


              Yuric102 · 13-Апр-17 17:08 (спустя 8 часов)

              [Цитировать] 

              kit400 писал(а):
              72897538>Очки же даются за сбитых пешеходов: 10 очков за взрослого, 20 за ребенка и 50 за престарелых граждан.
              Как-то неправильно: престарелого сбить - как два пальца, а дети люто уворачиваются!
              Думаю, именно поэтому IMDb: 3.60
              Там идея в том, что в стране слишком много стариков.
              [Профиль]  [ЛС] 

              b@dguy

              Стаж: 9 лет 1 месяц

              Сообщений: 7


              b@dguy · 24-Июн-17 10:21 (спустя 2 месяца 10 дней)

              [Цитировать] 

              От оригинала со Сталлоне и Кэррадайном сильно отличается?
              [Профиль]  [ЛС] 

              LIS160482

              Стаж: 7 лет 6 месяцев

              Сообщений: 3

              LIS160482 · 25-Июл-17 15:57 (спустя 1 месяц 1 день)

              [Цитировать] 

              а как картина то?
              [Профиль]  [ЛС] 
               
              Ответить
              Loading...
              Error