Адрес РуТрекера для пользователей РФ - MainTracker.org

Расскажи друзьям:  

Слоеный торт / Layer Cake (Мэттью Вон / Matthew Vaughn) [2004, Великобритания, триллер, драма, криминал, BDRip 1080p] 3x DVO + MVO + 2x VO + Sub Rus, Eng + Original Eng

Страницы:  1

Ответить
Автор
Сообщение

pirs18

Top Seed 05* 640r

Стаж: 7 лет 9 месяцев

Сообщений: 2565

pirs18 · 08-Мар-17 11:53 (8 месяцев назад, ред. 13-Мар-17 21:22)

Слоеный торт / Layer Cake
Страна: Великобритания
Жанр: триллер, драма, криминал
Год выпуска: 2004
Продолжительность: 01:45:23

    Перевод 1: Профессиональный (двухголосый закадровый) BD EUR
    Перевод 2: Профессиональный (многоголосый закадровый) ВидеоСервис
    Перевод 3: Профессиональный (двухголосый закадровый) FDV
    Перевод 4: Профессиональный (двухголосый закадровый)
    Перевод 5: Одноголосый закадровый М. Яроцкий, без цензуры
    Перевод 6: Одноголосый закадровый Kloun2010, без цензуры
    Субтитры: русские, английскиe
    Оригинальная аудиодорожка: английский

      Режиссер: Мэттью Вон / Matthew Vaughn

        В ролях: Дэниэл Крэйг, Сиенна Миллер, Колм Мини, Кеннет Крэнэм, Майкл Гэмбон, Джейсон Флеминг, Том Харди, Бен Уишоу, Декстер Флетчер, Джордж Харрис
        Описание: Торговать кокаином - не цветочки разводить. Бизнес нервный, чреватый ранней смертностью. Поэтому наркодилер по кличке Четыре Икса, заработав достаточно неправедных денег, решает более не искушать судьбу и уйти на покой. Однако перед этим ему, как водится, придется оказать своему боссу последнюю услугу: разыскать пропавшую дочку его старого приятеля.
        Кажется, плевое дело для знатока лондонского дна?! Если бы бедняга знал, каким безумным беспределом и чередой опасных недоразумений обернется это задание, в котором «случайно» оказалась замешана партия экстази на два миллиона, то вышел бы в отставку месяцем раньше! А лучше - двумя!..

          Релиз от:

            Тип релиза: BDRip 1080p
            Контейнер: MKV

              Видео: 1912x798 at 23.976 fps, x264@L4.1, crf, ~16821 kbps avg

                Аудио 1: Russian: 48 kHz, AC3, 3/2 (L,C,R,l,r) + LFE ch, ~640 kbps avg | BD EUR
                Аудио 2: Russian: 48 kHz, AC3, 3/2 (L,C,R,l,r) + LFE ch, ~448 kbps avg | ВидеоСервис
                Аудио 3: Russian: 48 kHz, AC3, 3/2 (L,C,R,l,r) + LFE ch, ~448 kbps avg | FDV
                Аудио 4: Russian: 48 kHz, AC3, 2/0 (L,R) ch, ~224 kbps avg | DVO
                Аудио 5: Russian: 48 kHz, DTS, 3/2 (L,C,R,l,r) + LFE ch, ~1509 kbps avg | М. Яроцкий, без цензуры
                Аудио 6: Russian: 48 kHz, AC3, 3/2 (L,C,R,l,r) + LFE ch, ~448 kbps avg | Kloun2010, без цензуры
                Аудио 7: Ukrainian: 48 kHz, AC3, 3/2 (L,C,R,l,r) + LFE ch, ~448 kbps avg
                Аудио 8: English: 48 kHz, DTS, 3/2 (L,C,R,l,r) + LFE ch, ~1509 kbps avg
                MediaInfo
                Общее
                Уникальный идентификатор : 196192699637171557353787964664109795341 (0x939956EA22F3BD40AABC1793B1D7080D)
                Полное имя : D:\Layer.Cake.2004.1080p.mkv
                Формат : Matroska
                Версия формата : Version 2
                Размер файла : 16,6 Гбайт
                Продолжительность : 1 ч. 45 м.
                Общий поток : 22,5 Мбит/сек
                Название фильма : Layer Cake (2004) - Encode by SbR
                Дата кодирования : UTC 2017-03-07 06:58:59
                Программа кодирования : mkvmerge v9.6.0 ('Slave To Your Mind') 64bit
                Библиотека кодирования : libebml v1.3.4 + libmatroska v1.4.5
                Обложка : Yes
                DURATION : 01:40:21.548000000
                NUMBER_OF_FRAMES : 1101
                NUMBER_OF_BYTES : 78979
                _STATISTICS_WRITING_APP : mkvmerge v9.6.0 ('Slave To Your Mind') 64bit
                _STATISTICS_WRITING_DATE_UTC : 2017-03-07 06:58:59
                _STATISTICS_TAGS : BPS DURATION NUMBER_OF_FRAMES NUMBER_OF_BYTES
                Attachment : Yes
                Видео
                Идентификатор : 1
                Формат : AVC
                Формат/Информация : Advanced Video Codec
                Профиль формата : High@L4.1
                Параметр CABAC формата : Да
                Параметр ReFrames формата : 5 кадров
                Идентификатор кодека : V_MPEG4/ISO/AVC
                Продолжительность : 1 ч. 45 м.
                Битрейт : 16,4 Мбит/сек
                Ширина : 1912 пикселей
                Высота : 798 пикселей
                Соотношение сторон : 2,40:1
                Режим частоты кадров : Постоянный
                Частота кадров : 23,976 кадра/сек
                Цветовое пространство : YUV
                Субдискретизация насыщенности : 4:2:0
                Битовая глубина : 8 бит
                Тип развёртки : Прогрессивная
                Бит/(Пиксели*Кадры) : 0.448
                Размер потока : 12,1 Гбайт (73%)
                Заголовок : Release for HDCLUB
                Библиотека кодирования : x264 core 148 r2744kMod b97ae06
                Настройки программы : cabac=1 / ref=5 / deblock=1:-2:-2 / analyse=0x3:0x133 / me=umh / subme=11 / psy=1 / fade_compensate=0.00 / psy_rd=1.00:0.00 / mixed_ref=1 / me_range=32 / chroma_me=1 / trellis=2 / 8x8dct=1 / cqm=0 / deadzone=21,11 / fast_pskip=1 / chroma_qp_offset=-2 / threads=12 / lookahead_threads=3 / sliced_threads=0 / nr=0 / decimate=1 / interlaced=0 / bluray_compat=0 / constrained_intra=0 / bframes=10 / b_pyramid=2 / b_adapt=2 / b_bias=0 / direct=1 / weightb=1 / open_gop=0 / weightp=2 / keyint=250 / keyint_min=23 / scenecut=40 / intra_refresh=0 / rc_lookahead=60 / rc=crf / mbtree=0 / crf=16.5000 / qcomp=0.60 / qpmin=0 / qpmax=69 / qpstep=4 / vbv_maxrate=62500 / vbv_bufsize=78125 / crf_max=0.0 / nal_hrd=none / filler=0 / ip_ratio=1.40 / pb_ratio=1.30 / aq=1:0.80
                Язык : English
                Default : Да
                Forced : Нет
                Основные цвета : BT.709
                Характеристики трансфера : BT.709
                Коэффициенты матрицы : BT.709
                Аудио #1
                Идентификатор : 2
                Формат : AC-3
                Формат/Информация : Audio Coding 3
                Расширение режима : CM (complete main)
                Параметр Endianness формата : Big
                Идентификатор кодека : A_AC3
                Продолжительность : 1 ч. 45 м.
                Вид битрейта : Постоянный
                Битрейт : 640 Кбит/сек
                Каналы : 6 каналов
                Расположение каналов : Front: L C R, Side: L R, LFE
                Частота : 48,0 КГц
                Битовая глубина : 16 бит
                Метод сжатия : С потерями
                Размер потока : 482 Мбайт (3%)
                Заголовок : Двухголосый, Blu-ray EUR
                Язык : Russian
                Default : Да
                Forced : Нет
                Аудио #2
                Идентификатор : 3
                Формат : AC-3
                Формат/Информация : Audio Coding 3
                Расширение режима : CM (complete main)
                Параметр Endianness формата : Big
                Идентификатор кодека : A_AC3
                Продолжительность : 1 ч. 45 м.
                Вид битрейта : Постоянный
                Битрейт : 448 Кбит/сек
                Каналы : 6 каналов
                Расположение каналов : Front: L C R, Side: L R, LFE
                Частота : 48,0 КГц
                Битовая глубина : 16 бит
                Метод сжатия : С потерями
                Размер потока : 338 Мбайт (2%)
                Заголовок : Многоголосый, ВидеоСервис
                Язык : Russian
                Default : Нет
                Forced : Нет
                Аудио #3
                Идентификатор : 4
                Формат : AC-3
                Формат/Информация : Audio Coding 3
                Расширение режима : CM (complete main)
                Параметр Endianness формата : Big
                Идентификатор кодека : A_AC3
                Продолжительность : 1 ч. 45 м.
                Вид битрейта : Постоянный
                Битрейт : 448 Кбит/сек
                Каналы : 6 каналов
                Расположение каналов : Front: L C R, Side: L R, LFE
                Частота : 48,0 КГц
                Битовая глубина : 16 бит
                Метод сжатия : С потерями
                Размер потока : 338 Мбайт (2%)
                Заголовок : Двухголосый, FDV
                Язык : Russian
                Default : Нет
                Forced : Нет
                Аудио #4
                Идентификатор : 5
                Формат : AC-3
                Формат/Информация : Audio Coding 3
                Расширение режима : CM (complete main)
                Параметр Endianness формата : Big
                Идентификатор кодека : A_AC3
                Продолжительность : 1 ч. 45 м.
                Вид битрейта : Постоянный
                Битрейт : 224 Кбит/сек
                Каналы : 2 канала
                Расположение каналов : Front: L R
                Частота : 48,0 КГц
                Битовая глубина : 16 бит
                Метод сжатия : С потерями
                Размер потока : 169 Мбайт (1%)
                Заголовок : Двухголосый
                Язык : Russian
                Default : Нет
                Forced : Нет
                Аудио #5
                Идентификатор : 6
                Формат : DTS
                Формат/Информация : Digital Theater Systems
                Режим : 16
                Параметр Endianness формата : Big
                Идентификатор кодека : A_DTS
                Продолжительность : 1 ч. 45 м.
                Вид битрейта : Постоянный
                Битрейт : 1509 Кбит/сек
                Каналы : 6 каналов
                Расположение каналов : Front: L C R, Side: L R, LFE
                Частота : 48,0 КГц
                Битовая глубина : 16 бит
                Метод сжатия : С потерями
                Размер потока : 1,11 Гбайт (7%)
                Заголовок : Яроцкий
                Язык : Russian
                Default : Нет
                Forced : Нет
                Аудио #6
                Идентификатор : 7
                Формат : AC-3
                Формат/Информация : Audio Coding 3
                Расширение режима : CM (complete main)
                Параметр Endianness формата : Big
                Идентификатор кодека : A_AC3
                Продолжительность : 1 ч. 45 м.
                Вид битрейта : Постоянный
                Битрейт : 448 Кбит/сек
                Каналы : 6 каналов
                Расположение каналов : Front: L C R, Side: L R, LFE
                Частота : 48,0 КГц
                Битовая глубина : 16 бит
                Метод сжатия : С потерями
                Размер потока : 338 Мбайт (2%)
                Заголовок : Kloun2010
                Язык : Russian
                Default : Нет
                Forced : Нет
                Аудио #7
                Идентификатор : 8
                Формат : AC-3
                Формат/Информация : Audio Coding 3
                Расширение режима : CM (complete main)
                Параметр Endianness формата : Big
                Идентификатор кодека : A_AC3
                Продолжительность : 1 ч. 45 м.
                Вид битрейта : Постоянный
                Битрейт : 448 Кбит/сек
                Каналы : 6 каналов
                Расположение каналов : Front: L C R, Side: L R, LFE
                Частота : 48,0 КГц
                Битовая глубина : 16 бит
                Метод сжатия : С потерями
                Размер потока : 338 Мбайт (2%)
                Заголовок : Многоголосый, ТакТребаПродакшн
                Язык : Ukrainian
                Default : Нет
                Forced : Нет
                Аудио #8
                Идентификатор : 9
                Формат : DTS
                Формат/Информация : Digital Theater Systems
                Режим : 16
                Параметр Endianness формата : Big
                Идентификатор кодека : A_DTS
                Продолжительность : 1 ч. 45 м.
                Вид битрейта : Постоянный
                Битрейт : 1509 Кбит/сек
                Каналы : 6 каналов
                Расположение каналов : Front: L C R, Side: L R, LFE
                Частота : 48,0 КГц
                Битовая глубина : 16 бит
                Метод сжатия : С потерями
                Размер потока : 1,11 Гбайт (7%)
                Язык : English
                Default : Нет
                Forced : Нет
                Текст #1
                Идентификатор : 10
                Формат : UTF-8
                Идентификатор кодека : S_TEXT/UTF8
                Идентификатор кодека/Информация : UTF-8 Plain Text
                Заголовок : Caption
                Язык : Russian
                Default : Нет
                Forced : Нет
                Текст #2
                Идентификатор : 11
                Формат : UTF-8
                Идентификатор кодека : S_TEXT/UTF8
                Идентификатор кодека/Информация : UTF-8 Plain Text
                Язык : Russian
                Default : Нет
                Forced : Нет
                Текст #3
                Идентификатор : 12
                Формат : UTF-8
                Идентификатор кодека : S_TEXT/UTF8
                Идентификатор кодека/Информация : UTF-8 Plain Text
                Язык : English
                Default : Нет
                Forced : Нет
                Меню
                00:00:00.000 : en:Quit While You're Ahead
                00:15:34.516 : en:Main Titles / Lunch with Jimmy
                00:22:21.715 : en:The Duke / Tammy
                00:29:57.212 : en:Shakes Fills the Gap
                00:33:15.326 : en:Kinky's Flat
                00:37:27.828 : en:Tea with Morty
                00:42:35.844 : en:You're Going to Need One of These
                00:46:04.678 : en:Looking for the Duke
                00:50:17.556 : en:Room Service
                00:59:10.088 : en:Eddie Temple
                01:04:54.640 : en:Jimmy's Price
                01:12:06.739 : en:Dealing with Eddie
                01:17:17.633 : en:"Let's Listen to This Shit"
                01:21:43.899 : en:Dragon
                01:28:46.029 : en:The New Plan
                01:31:40.077 : en:Settling Accounts
                Скриншоты
                Download
                Чтобы скачать .torrent файл необходима регистрация
                Сайт не распространяет и не хранит электронные версии произведений, а лишь предоставляет доступ к создаваемому пользователями каталогу ссылок на торрент-файлы, которые содержат только списки хеш-сумм
                [Профиль]  [ЛС] 
                 
                Ответить
                Loading...
                Error