Адрес РуТрекера для пользователей РФ - MainTracker.org

Расскажи друзьям:  

Самый счастливый день в жизни Олли Мяки / The Happiest Day in the Life of Olli Maki / Hymyileva mies (Юхо Куосманен / Juho Kuosmanen) [2016, Финляндия, Швеция, Германия, драма, спорт, HDRip] VO + Sub Rus + Original Fin

Страницы:  1

Ответить
Автор
Сообщение

visanti

Стаж: 2 года 1 месяц

Сообщений: 37

visanti · 25-Фев-17 11:43 (8 месяцев назад)

Самый счастливый день в жизни Олли Мяки / The Happiest Day in the Life of Olli Mäki / Hymyilevä mies
Страна: Финляндия, Швеция, Германия
Жанр: драма, спорт
Год выпуска: 2016
Продолжительность: 01:32:43
Перевод: Одноголосый закадровый (visanti-vasaer)
Субтитры: русские / английские
Оригинальная аудиодорожка: финский
Режиссер: Юхо Куосманен / Juho Kuosmanen
В ролях: Яркко Лахти, Ээро Милонофф, Йунас Саартамо, Оона Айрола, Юха Макинен
Описание: История боксера Олли Мяки. Действие разворачивается в Финляндии 1960-х годов. Мяки — подающий большие надежды боксер, выступающий в легкой весовой категории.
Доп. информация: Фильм выдвинут Финляндией на премию «Оскар» за лучший фильм на иностранном языке в 2017г.
Другой перевод фильма - "Улыбающийся человек"
Сэмпл: https://yadi.sk/i/eSh-86EM3EZTQk
Качество видео: HDRip (исходник: BDRip/1080p)
Формат видео: AVI
Видео: DivX, 720x384, 23,976 fps, 1700 kbps
Аудио: AC3 48,0 КГц, 2ch, 192 Кбит/сек
Аудио 2: AC3 48,0 КГц, 2ch, 192 Кбит/сек
Формат субтитров: softsub (SRT)
MediaInfo
Формат : AVI
Формат/Информация : Audio Video Interleave
Профиль формата : OpenDML
Настройки формата : rec
Размер файла : 1,36 Гбайт
Продолжительность : 1 ч. 32 м.
Общий поток : 2092 Кбит/сек
Программа кодирования : AVI-Mux GUI 1.17.8.3, Feb 16 201019:42:50
Видео
Идентификатор : 0
Формат : MPEG-4 Visual
Профиль формата : Advanced Simple@L5
Параметр BVOP формата : 1
Параметр QPel формата : Нет
Параметр GMC формата : Без точки перехода
Параметр матрицы формата : Default (MPEG)
Идентификатор кодека : DX50
Идентификатор кодека/Подсказка : DivX 5
Продолжительность : 1 ч. 32 м.
Битрейт : 1700 Кбит/сек
Ширина : 720 пикселей
Высота : 384 пикселя
Соотношение сторон : 1,85:1
Частота кадров : 23,976 (24000/1001) кадра/сек
Цветовое пространство : YUV
Субдискретизация насыщенности : 4:2:0
Битовая глубина : 8 бит
Тип развёртки : Прогрессивная
Метод сжатия : С потерями
Бит/(Пиксели*Кадры) : 0.257
Размер потока : 1,10 Гбайт (81%)
Библиотека кодирования : XviD 1.2.1 (UTC 2008-12-04)
Аудио #1
Идентификатор : 1
Формат : AC-3
Формат/Информация : Audio Coding 3
Расширение режима : CM (complete main)
Параметр Endianness формата : Big
Идентификатор кодека : 2000
Продолжительность : 1 ч. 32 м.
Вид битрейта : Постоянный
Битрейт : 192 Кбит/сек
Каналы : 2 канала
Расположение каналов : Front: L R
Частота : 48,0 КГц
Частота кадров : 31,250 кадров/сек (1536 spf)
Битовая глубина : 16 бит
Метод сжатия : С потерями
Размер потока : 127 Мбайт (9%)
Выравнивание : Соединение по промежуткам
Продолжительность промежутка : 64 мс. (1,53 видеокадра)
Время предзагрузки промежутка : 192 мс.
Аудио #2
Идентификатор : 2
Формат : AC-3
Формат/Информация : Audio Coding 3
Расширение режима : CM (complete main)
Параметр Endianness формата : Big
Идентификатор кодека : 2000
Продолжительность : 1 ч. 32 м.
Вид битрейта : Постоянный
Битрейт : 192 Кбит/сек
Каналы : 2 канала
Расположение каналов : Front: L R
Частота : 48,0 КГц
Частота кадров : 31,250 кадров/сек (1536 spf)
Битовая глубина : 16 бит
Метод сжатия : С потерями
Размер потока : 127 Мбайт (9%)
Выравнивание : Соединение по промежуткам
Продолжительность промежутка : 64 мс. (1,53 видеокадра)
Время предзагрузки промежутка : 192 мс.
Скриншот c названием фильма
Скриншоты
Download
Чтобы скачать .torrent файл необходима регистрация
Сайт не распространяет и не хранит электронные версии произведений, а лишь предоставляет доступ к создаваемому пользователями каталогу ссылок на торрент-файлы, которые содержат только списки хеш-сумм
[Профиль]  [ЛС] 

timmymondo

Стаж: 2 года 10 месяцев

Сообщений: 4


timmymondo · 25-Фев-17 22:43 (спустя 10 часов)

[Цитировать] 

будет 720р?
[Профиль]  [ЛС] 

delhero

Стаж: 8 лет 5 месяцев

Сообщений: 264

delhero · 26-Фев-17 11:49 (спустя 13 часов)

[Цитировать] 

Будет в цвете?
[Профиль]  [ЛС] 

xolera1

Стаж: 11 лет 3 месяца

Сообщений: 414

xolera1 · 26-Фев-17 20:48 (спустя 8 часов, ред. 26-Фев-17 20:48)

[Цитировать] 

Улыбающийся человек
XviD build 50 а не DivX
[Профиль]  [ЛС] 

alex urgant

Стаж: 1 год 7 месяцев

Сообщений: 186

alex urgant · 28-Фев-17 10:16 (спустя 1 день 13 часов, ред. 28-Фев-17 10:16)

[Цитировать] 

жаль! я думал что фильм будет про олю мяки!
[Профиль]  [ЛС] 

Zhurnalist

Стаж: 7 лет 8 месяцев

Сообщений: 8


Zhurnalist · 07-Мар-17 10:34 (спустя 7 дней)

[Цитировать] 

Как по мне, то фильм должен заинтересовать только финнов и исключительно тех финнов, которые ностальгируют по 1962 году. Поэтому наверно черно-белый, чтоб усилить эффект. Сюжет неспешный, я бы сказал замедленный, а сам бой завершился на удивление быстро. Не мой фильм.
[Профиль]  [ЛС] 

begemot_kot12

Стаж: 6 лет 10 месяцев

Сообщений: 211

begemot_kot12 · 07-Мар-17 13:13 (спустя 2 часа 39 мин.)

[Цитировать] 

Мужик в бабочке справа на постере - вылитый Лев Лещенко из "Песня Года" где-то из 1962 года. Совпадение? Не думаю!
[Профиль]  [ЛС] 

LuciusIM

Стаж: 8 месяцев

Сообщений: 42


LuciusIM · 13-Апр-17 12:34 (спустя 1 месяц 5 дней, ред. 13-Апр-17 12:34)

[Цитировать] 

Что за дурацкая привычка появилась в последнее время снимать ч/б фильмы? Я думаю, художественной ценности это не прибавляет ни на грамм. Вообще считаю снял ч/б ищи свое творение в артхаусе. Что дальше, фильмы без звука под аккомпанемент фортепиано?
[Профиль]  [ЛС] 

konashenkovd

Стаж: 7 лет 2 месяца

Сообщений: 2


konashenkovd · 13-Апр-17 13:12 (спустя 38 мин.)

[Цитировать] 

я не цензор. я думаю не привычка, а обдуманный шаг, так сказать выбор продюссера или режисёра.. кто там уних решения принимает.
но мне тоже ч/б не нравится.
[Профиль]  [ЛС] 

j_mhost

Стаж: 9 лет 8 месяцев

Сообщений: 380

j_mhost · 13-Апр-17 20:49 (спустя 7 часов)

[Цитировать] 

LuciusIM писал(а):
72898669Что за дурацкая привычка появилась в последнее время снимать ч/б фильмы? Я думаю, художественной ценности это не прибавляет ни на грамм. Вообще считаю снял ч/б ищи свое творение в артхаусе. Что дальше, фильмы без звука под аккомпанемент фортепиано?
Отучитесь в любом профильном универе, там объясняют это все
[Профиль]  [ЛС] 

recatr

Стаж: 5 лет 10 месяцев

Сообщений: 335

recatr · 22-Апр-17 09:21 (спустя 8 дней)

[Цитировать] 

visanti
спасибо за релиз, оригинальный звук и субтитры.
хороший фильм, почти отличный.
спасибо за душевный вечер.
[Профиль]  [ЛС] 

maksmyna

Стаж: 10 месяцев

Сообщений: 18

maksmyna · 26-Окт-17 11:13 (спустя 6 месяцев)

[Цитировать] 

Будет ли в HD?
[Профиль]  [ЛС] 
 
Ответить
Loading...
Error