Адрес РуТрекера для пользователей РФ - MainTracker.org

Расскажи друзьям:  

Новая эра Z / The Girl with All the Gifts (Колм МакКарти / Colm McCarthy) [2016, США, Великобритания, ужасы, триллер, драма, BDRip] [Локализованный видеоряд] Dub (RUS)

Страницы:  1

Ответить
Автор
Сообщение

Odesit_Roma

Стаж: 3 года 1 месяц

Сообщений: 77


Odesit_Roma · 20-Фев-17 22:20 (10 месяцев назад, ред. 21-Фев-17 21:22)

Новая эра Z / The Girl with All the Gifts
Страна: США, Великобритания
Жанр: ужасы, триллер, драма
Год выпуска: 2016
Продолжительность: 01:50:50
Перевод: Профессиональный (дублированный) RUS
Субтитры: нет
Режиссер: Колм МакКарти / Colm McCarthy
В ролях: Джемма Артертон, Гленн Клоуз, Пэдди Консидайн, Анамария Маринка, Доминик Типпер, Сенниа Нануа, Лобна Фьютерс, Дэниэл Иган, Фисайо Акинаде, Энтони Уэльс
Описание: Война миров не закончилась. Планету поразил страшный вирус. На людей стали нападать инфицированные особи, поставив человечество на грань исчезновения. Единственная надежда — второе поколение зараженных, опасных, но обладающих феноменальным, более высоким, чем у людей, интеллектом. Они — ключ к созданию спасительной вакцины. Поэтому их держат в специальном бункере, оберегая от контактов с внешним миром. Но однажды ситуация выходит из-под контроля.
Сэмпл: http://multi-up.com/1141760
Качество видео: BDRip
Формат видео: AVI
Видео: 720x368 (1.96:1), 24.000 fps, XviD build 73 ~1489 kbps avg, 0.23 bit/pixel
Аудио: 48 kHz, AC3 Dolby Digital, 3/2 (L,C,R,l,r) + LFE ch, ~384 kbps
MediaInfo
Формат : AVI
Формат/Информация : Audio Video Interleave
Размер файла : 1,46 Гбайт
Продолжительность : 1 ч. 50 м.
Общий поток : 1883 Кбит/сек
Программа кодирования : VirtualDubMod 1.5.10.3 | www.virtualdub-fr.org || (build 2550/release)
Библиотека кодирования : VirtualDubMod build 2550/release
Видео
Идентификатор : 0
Формат : MPEG-4 Visual
Профиль формата : Advanced Simple@L5
Параметр BVOP формата : 1
Параметр QPel формата : Нет
Параметр GMC формата : Без точки перехода
Параметр матрицы формата : Выборочная
Идентификатор кодека : XVID
Идентификатор кодека/Подсказка : XviD
Продолжительность : 1 ч. 50 м.
Битрейт : 1490 Кбит/сек
Ширина : 720 пикселей
Высота : 368 пикселей
Соотношение сторон : 1,957
Частота кадров : 24,000 кадра/сек
Цветовое пространство : YUV
Субдискретизация насыщенности : 4:2:0
Битовая глубина : 8 бит
Тип развёртки : Прогрессивная
Метод сжатия : С потерями
Бит/(Пиксели*Кадры) : 0.234
Размер потока : 1,15 Гбайт (79%)
Библиотека кодирования : XviD 73
Аудио
Идентификатор : 1
Формат : AC-3
Формат/Информация : Audio Coding 3
Расширение режима : CM (complete main)
Параметр Endianness формата : Big
Идентификатор кодека : 2000
Продолжительность : 1 ч. 50 м.
Вид битрейта : Постоянный
Битрейт : 384 Кбит/сек
Каналы : 6 каналов
Расположение каналов : Front: L C R, Side: L R, LFE
Частота : 48,0 КГц
Частота кадров : 31,250 кадров/сек (1536 spf)
Метод сжатия : С потерями
Размер потока : 304 Мбайт (20%)
Выравнивание : Разделение по промежуткам
Продолжительность промежутка : 42 мс. (1,00 видеокадр)
Время предзагрузки промежутка : 500 мс.
Скриншоты
http://maintracker.org/forum/viewtopic.php?t=5337174 http://screenshotcomparison.com/comparison/201226/picture:0
Download
Чтобы скачать .torrent файл необходима регистрация
Сайт не распространяет и не хранит электронные версии произведений, а лишь предоставляет доступ к создаваемому пользователями каталогу ссылок на торрент-файлы, которые содержат только списки хеш-сумм
[Профиль]  [ЛС] 
 

xorg.conf

Стаж: 7 лет 9 месяцев

Сообщений: 26


xorg.conf · 24-Фев-17 16:05 (спустя 3 дня)

[Цитировать] 

хоть я и ненавижу фильмы про зомби, этот вроде ничего, смотрибельный, хотя если бы заменили зомби просто какой-нибудь болезнью с мутацией было бы лучше
p/s локализаторы прям 80 уровня, ну вот как блин вообще «Девушка со всеми дарами» превратилось в «Новая эра Z»??
[Профиль]  [ЛС] 

fefe 163

Стаж: 2 года 9 месяцев

Сообщений: 6


fefe 163 · 24-Фев-17 16:45 (спустя 40 мин.)

[Цитировать] 

скорее - с дарами для всех
[Профиль]  [ЛС] 

azatvornik

Стаж: 7 лет 10 месяцев

Сообщений: 14

azatvornik · 24-Фев-17 22:09 (спустя 5 часов, ред. 24-Фев-17 22:09)

[Цитировать] 

Хорошая английская фантастика! С небанальной идеей относительности в морали.
Цитата:
редкостный бред
это для одной прямой извилины.
[Профиль]  [ЛС] 

veronas064

Стаж: 3 года 7 месяцев

Сообщений: 838

veronas064 · 24-Фев-17 23:08 (спустя 58 мин.)

[Цитировать] 

На удивление неплохой зомби-апокалипсис. Неожиданно начинается и необычно заканчивается.
[Профиль]  [ЛС] 

mihhaila

Стаж: 9 лет 2 месяца

Сообщений: 16


mihhaila · 09-Мар-17 22:08 (спустя 12 дней)

[Цитировать] 

по книге Мелани - белобрысая, а тут... политкорректность перевешивает?
[Профиль]  [ЛС] 

Oxidizer2000

Стаж: 7 лет 3 месяца

Сообщений: 33


Oxidizer2000 · 11-Мар-17 20:04 (спустя 1 день 21 час)

[Цитировать] 

Фильм про мигрантов и Европу, а так же то что они с ней сделают. Фраза негритянской девочки конце фильма.
[Профиль]  [ЛС] 

Носок_Хундертвассера

Стаж: 2 года 9 месяцев

Сообщений: 3

Носок_Хундертвассера · 24-Мар-17 22:33 (спустя 13 дней, ред. 24-Мар-17 22:33)

[Цитировать] 

Oxidizer2000 писал(а):
72664288Фильм про мигрантов и Европу, а так же то что они с ней сделают. Фраза негритянской девочки конце фильма.
А главный грибок - это толерантность.
[Профиль]  [ЛС] 

psichosiz

Стаж: 9 лет 4 месяца

Сообщений: 33


psichosiz · 25-Мар-17 13:52 (спустя 15 часов)

[Цитировать] 

фильм нормальный, зашел, негатива не оставил после себя
напомнило 28 дней спустя (именно ..дней, а не ...недель)
ну а идея про грибок напрямую взята с ласт оф ас, или игра взяла идею у писательницы, не знаю не разбирался, но все равно здорово вышло
[Профиль]  [ЛС] 

Dimarick89

Стаж: 3 года

Сообщений: 4


Dimarick89 · 25-Мар-17 22:48 (спустя 8 часов)

[Цитировать] 

Конечно, фильм на любителя. Мне нравятся фильмы постапокалиптического направления, но этот фильм мне понравился еще больше, необычная и нестандартная задумка сюжета. Актёры сыграли на твёрдую 10/10! Особенно эта девочка, умница просто) Много волнующих и интригующих моментов, смотрится легко и плавно перетекает в напряжение, но это очень круто) Я рекомендую к просмотру, тем, кто ищет что то не обычное!!!
[Профиль]  [ЛС] 

Hel_ka67

Top Seed 03* 160r

Стаж: 1 год 10 месяцев

Сообщений: 2286

Hel_ka67 · 16-Май-17 08:50 (спустя 1 месяц 21 день)

[Цитировать] 

А жрать они теперь чего будут?
[Профиль]  [ЛС] 

skiangel

Стаж: 8 лет 5 месяцев

Сообщений: 11


skiangel · 17-Май-17 16:40 (спустя 1 день 7 часов)

[Цитировать] 

mihhaila писал(а):
72650799по книге Мелани - белобрысая, а тут... политкорректность перевешивает?
В книге, по которой "Я - легенда", главный герой тоже блондин с голубыми глазами. Что поделаешь, мир нынче не тот...
[Профиль]  [ЛС] 

Hel_ka67

Top Seed 03* 160r

Стаж: 1 год 10 месяцев

Сообщений: 2286

Hel_ka67 · 17-Май-17 17:54 (спустя 1 час 13 мин.)

[Цитировать] 

skiangel писал(а):
73127990
mihhaila писал(а):
72650799по книге Мелани - белобрысая, а тут... политкорректность перевешивает?
В книге, по которой "Я - легенда", главный герой тоже блондин с голубыми глазами. Что поделаешь, мир нынче не тот...
Мир тот же самый, просто многие из людей свихнулись, глядишь одумаются. А может поздно будет...
[Профиль]  [ЛС] 

eccehomoecce

Стаж: 4 года 11 месяцев

Сообщений: 125

eccehomoecce · 20-Ноя-17 22:53 (спустя 6 месяцев)

[Цитировать] 

Примитивно слеплено, убого сыграно. Или наоборот. Как-то так.
[Профиль]  [ЛС] 

formosa

Стаж: 10 лет 1 месяц

Сообщений: 725

formosa · 21-Ноя-17 05:24 (спустя 6 часов)

[Цитировать] 

Ожидания фильма были напрасны, а жаль...
[Профиль]  [ЛС] 
 
Ответить
Loading...
Error