Рассвет Мумии / Восстание мумии / Dawn of the Mummy (Фрэнк Аграма / Frank Agrama) [1981, США, ужасы, DVD9 (Custom)] VO (R5 диктор студии "Диона) + Original Eng

Страницы:  1

Ответить
Автор
Сообщение

Lucian666

Стаж: 9 лет 3 месяца

Сообщений: 2973

Откуда: Я поэт,я на белом свете живу

11-Дек-16 23:03 (3 месяца 13 дней назад, ред. 31-Дек-16 17:59)

[Цитировать] 

Рассвет Мумии / Восстание мумии / Dawn of the Mummy
Страна: США
Студия: Harmony Gold
Жанр: ужасы
Год выпуска: 1981
Продолжительность: 01:28:14
Перевод: Студийный (одноголосый закадровый) R5 диктор студии "Диона
Cубтитры: нет
Оригинальная аудиодорожка: английский
Режиссер: Фрэнк Аграма / Frank Agrama
В ролях: Бренда Кинг, Джоан Леви, Эллен Фейзон, Джон Сальво
Описание: Члена египетской королевской династии мумифицируют и хоронят в гробнице огромной пирамиды. Три тысячи лет спустя охотники за драгоценностями проникают в пирамиду и пробуждают усопшего, а также заживо похороненных вместе с ним рабов. В это время в склепе появляются американские туристы, отправившиеся в экскурсию по Египту. Они, разинув рты, осматривают египетские пирамиды и случайно забредают в гробницу. Туристы ищут подходящее место, чтобы сделать удачные фотографии для журнала мод. Обстановка гробницы кажется им наиболее подходящим местом. Но свет от ламп и софитов пробуждает к жизни мумий. Естественно, пустоголовые модели, больше заботящиеся о своих ногтях, чем замечающие притаившихся вокруг мумий, погибают. Не отстают от них и охотники за сокровищами. Вскоре близлежащая египетская деревня оказывается населена зомбиобразными мумиями, вырывающими глаза и отрывающими члены у жителей…
Картина имеет репутацию одного из наиболее кровавых фильмов о мумии и навеяна лентой Джорджа Ромеро «Рассвет мертвецов» (1978). Американский фильм, снятый на итальянские деньги в Каире египетским режиссером. Грим сделал Маурицио Трани («Резня зомби», 1979; «Зомби-2», 1979; «За чертой», 1981; «Та вилла рядом с кладбищем», 1981; «Пираньи-2», 1981; «Ребенок Манхэттена», 1982; «Потрошитель Нью-Йорка», 1982; «Войны Бронкса 1990 года», 1982; «Дикие звери», 1983; «Хищники Атлантиды», 1983; «2019 год: после падения Нью-Йорка», 1983; «Ад в джунглях», 1985; «Римини, Римини», 1987; «Метаморфозы», 1987; «Колдовство», 1988), много работавший с Лучио Фулчи.
Доп. информация: Русская звуковая дорожка взята с этой раздачи http://maintracker.org/forum/viewtopic.php?t=1768415 автору большое спасибо.
За синхронизацию русской дорожки огромное спасибо *Sergeant_am*
При пересборе двд были использованы программы:
VirtualDubMod_1_5_10_2_All_inclusive - извлечение русской дорожки из рипа
PgcDemux - разделение компонентов диска на файлы
Muxman - мультиплексирование и авторинг DVD
VobBlanker - реавторинг DVD
mp3->WAV
sony vegas
Скрин завершения проекта
Переход
Бонусы: Трейлер, коментарии, галерея.
Сэмпл: http://sendfile.su/1289745
Тип релиза: DVD9 (Custom)
Контейнер: DVD-Video
Видео: PAL 16:9 (720x576) VBR Auto Letterboxed
Аудио: Russian (Dolby AC3, 192 Кбит/сек, 2 ch)
Аудио 2: English (Dolby AC3, 224 Кбит/сек, 2 ch)
Аудио 3: English (Dolby AC3, 448 Кбит/сек, 6 ch)
Аудио 4: English (Dolby AC3, 224 Кбит/сек, 2 ch) (коментарии)
Аудио 5: English (DTS, 768 Кбит/сек, 6 ch)
DVDInfo
Title: Dawn of the Mummy_1981
Size: 7.35 Gb ( 7 702 990,00 KBytes ) - DVD-9
Enabled regions: 1, 2, 3, 4, 5, 6, 7, 8
VTS_01 :
Play Length: 00:00:22+00:01:11
Video: PAL 16:9 (720x576) VBR, Auto Letterboxed
Audio:
Not specified (Dolby AC3, 2 ch)
Subtitles:
Not specified
VTS_02 :
Play Length: 01:28:14
Video: PAL 16:9 (720x576) VBR, Auto Letterboxed
Audio:
Russian, AC3, 2/0 (L,R) ch, 192 kbps, Delay 0 mSec
English, AC3, 2/0 (L,R) ch, 224 kbps, Delay 0 mSec
English, AC3, 3/2 (L,C,R,SL,SR)+LFE ch, 448 kbps, Delay 0 mSec
English, DTS, 3/2 (L,C,R,SL,SR), 768 kbps, Delay 0 mSec
English, AC3, 2/0 (L,R) ch, 224 kbps, Delay 0 mSec
VTS_03 :
Play Length: 00:00:01
Video: PAL 16:9 (720x576) VBR, Auto Letterboxed
Subtitles:
Not specified
VTS_04 :
Play Length: 00:00:06
Video: PAL 16:9 (720x576) VBR, Auto Letterboxed
VTS_05 :
Play Length: 00:02:29
Video: PAL 4:3 (720x576) VBR
Audio:
Not specified (Dolby AC3, 2 ch)
VTS_06 :
Play Length: 01:28:14
Video: PAL 4:3 (720x576) VBR
Audio:
Not specified (Dolby AC3, 2 ch)
Not specified (Dolby AC3, 6 ch)
Not specified (Dolby AC3, 2 ch)
* Menus Information *
VIDEO_TS Menu
Video:
PAL 16:9 (720x576) VBR
Auto Letterboxed
Audio:
Not specified (Dolby AC3, 2 ch)
English Language Unit :
Title Menu
VTS_01 Menu
Video:
NTSC 4:3 (720x480) VBR
Auto Pan&Scan, Auto Letterboxed
Language Unit :
Angle menu
Language Unit :
VTS_02 Menu
Video:
PAL 16:9 (720x576) VBR
Auto Letterboxed
Audio:
Not specified (Dolby AC3, 2 ch)
English Language Unit :
Root Menu
VTS_03 Menu
Video:
PAL 16:9 (720x576) VBR
Auto Letterboxed
English Language Unit :
Root Menu
VTS_04 Menu
Video:
PAL 16:9 (720x576) VBR
Auto Letterboxed
English Language Unit :
Root Menu
VTS_05 Menu
Video:
PAL 4:3 (720x576) VBR
English Language Unit :
Root Menu
VTS_06 Menu
Video:
PAL 4:3 (720x576) VBR
Audio:
Not specified (Dolby AC3, 2 ch)
English Language Unit :
Root Menu
MediaInfo
Общее
Полное имя : G:\DVD ГОТОВЫЕ\Dawn of the Mummy_1981\VIDEO_TS\VTS_02_1.VOB
Формат : MPEG-PS
Размер файла : 1024 Мбайт
Продолжительность : 21 м.
Режим общего битрейта : Переменный
Общий поток : 6580 Кбит/сек
Видео
Идентификатор : 224 (0xE0)
Формат : MPEG Video
Версия формата : Version 2
Профиль формата : Main@Main
Параметр BVOP формата : Да
Параметр матрицы формата : По умолчанию
Параметр GOP формата : M=2, N=5
Структура изображения : Frame
Продолжительность : 21 м.
Вид битрейта : Переменный
Битрейт : 4606 Кбит/сек
Максимальный битрейт : 8500 Кбит/сек
Ширина : 720 пикселей
Высота : 576 пикселей
Соотношение сторон : 2,40:1
Частота кадров : 25,000 кадров/сек
Стандарт вещания : PAL
Цветовое пространство : YUV
Субдискретизация насыщенности : 4:2:0
Битовая глубина : 8 бит
Тип развёртки : Чересстрочная
Порядок развёртки : Верхнее поле первое
Метод сжатия : С потерями
Бит/(Пиксели*Кадры) : 0.444
Временной код первого кадра : 01:00:15:15
Оригинал временного кода : Group of pictures header
GOP, открыто/закрыто : Открыто
Размер потока : 717 Мбайт (70%)
Основные цвета : BT.601 PAL
Характеристики трансфера : BT.470 System B, BT.470 System G
Коэффициенты матрицы : BT.601
Аудио #1
Идентификатор : 189 (0xBD)-128 (0x80)
Формат : AC-3
Формат/Информация : Audio Coding 3
Расширение режима : CM (complete main)
Параметр Endianness формата : Big
Режим смешивания : DVD-Video
Продолжительность : 21 м.
Вид битрейта : Постоянный
Битрейт : 192 Кбит/сек
Каналы : 2 канала
Расположение каналов : Front: L R
Частота : 48,0 КГц
Метод сжатия : С потерями
Размер потока : 29,9 Мбайт (3%)
Аудио #2
Идентификатор : 189 (0xBD)-129 (0x81)
Формат : AC-3
Формат/Информация : Audio Coding 3
Расширение режима : CM (complete main)
Параметр Endianness формата : Big
Режим смешивания : DVD-Video
Продолжительность : 21 м.
Вид битрейта : Постоянный
Битрейт : 224 Кбит/сек
Каналы : 2 канала
Расположение каналов : Front: L R
Частота : 48,0 КГц
Метод сжатия : С потерями
Размер потока : 34,9 Мбайт (3%)
Аудио #3
Идентификатор : 189 (0xBD)-130 (0x82)
Формат : AC-3
Формат/Информация : Audio Coding 3
Расширение режима : CM (complete main)
Параметр Endianness формата : Big
Режим смешивания : DVD-Video
Продолжительность : 21 м.
Вид битрейта : Постоянный
Битрейт : 448 Кбит/сек
Каналы : 6 каналов
Расположение каналов : Front: L C R, Side: L R, LFE
Частота : 48,0 КГц
Метод сжатия : С потерями
Размер потока : 69,7 Мбайт (7%)
Аудио #4
Идентификатор : 189 (0xBD)-132 (0x84)
Формат : AC-3
Формат/Информация : Audio Coding 3
Расширение режима : CM (complete main)
Параметр Endianness формата : Big
Режим смешивания : DVD-Video
Продолжительность : 21 м.
Вид битрейта : Постоянный
Битрейт : 224 Кбит/сек
Каналы : 2 канала
Расположение каналов : Front: L R
Частота : 48,0 КГц
Метод сжатия : С потерями
Размер потока : 34,9 Мбайт (3%)
Аудио #5
Идентификатор : 189 (0xBD)-139 (0x8B)
Формат : DTS
Формат/Информация : Digital Theater Systems
Режим : 16
Параметр Endianness формата : Big
Режим смешивания : DVD-Video
Продолжительность : 21 м.
Вид битрейта : Постоянный
Битрейт : 768 Кбит/сек
Каналы : 6 каналов
Расположение каналов : Front: L C R, Side: L R, LFE
Частота : 48,0 КГц
Битовая глубина : 24 бит
Метод сжатия : С потерями
Размер потока : 117 Мбайт (11%)
Меню
Постеры, обложка и блин
Скриншоты меню
Download
Чтобы скачать .torrent файл необходима регистрация
Сайт не распространяет и не хранит электронные версии произведений, а лишь предоставляет доступ к создаваемому пользователями каталогу ссылок на торрент-файлы, которые содержат только списки хеш-сумм
[Профиль]  [ЛС] 

@кедр@

Moderator gray

Стаж: 8 лет 9 месяцев

Сообщений: 2989

Откуда: BD>DVD

25-Дек-16 18:57 (спустя 13 дней)

[Цитировать] 

Цитата:
Аудио 4: English (DTS, 755 Кбит/сек, 6 ch)
Не верно
[Профиль]  [ЛС] 

Lucian666

Стаж: 9 лет 3 месяца

Сообщений: 2973

Откуда: Я поэт,я на белом свете живу

28-Дек-16 00:46 (спустя 2 дня 5 часов)

[Цитировать] 

теперь верно
[Профиль]  [ЛС] 

@кедр@

Moderator gray

Стаж: 8 лет 9 месяцев

Сообщений: 2989

Откуда: BD>DVD

28-Дек-16 23:27 (спустя 22 часа)

[Цитировать] 

Lucian666 писал(а):
72118119теперь верно
Где?
[Профиль]  [ЛС] 

28-Дек-16 23:27 (спустя 17 сек.)

Тема была перенесена из форума DVD Video в форум Тестовый форум
@кедр@
 

Lucian666

Стаж: 9 лет 3 месяца

Сообщений: 2973

Откуда: Я поэт,я на белом свете живу

29-Дек-16 00:16 (спустя 48 мин., ред. 31-Дек-16 16:56)

[Цитировать] 

тое же против медиа не попрёш)
[Профиль]  [ЛС] 

Deniskahz

Стаж: 6 лет 7 месяцев

Сообщений: 89


11-Янв-17 20:19 (спустя 13 дней)

[Цитировать] 

Версия 4:3 без перевода?
[Профиль]  [ЛС] 

pilshik1975

Стаж: 4 года 5 месяцев

Сообщений: 27


24-Фев-17 12:00 (спустя 1 месяц 12 дней)

[Цитировать] 

Встаньте пожалуйста на раздачу,месяц уже скачать не получается.
[Профиль]  [ЛС] 
 
Ответить
Loading...
Error