Лучше всех 05 выпуск от 2016.12.11 [2016, Детское телевизионное шоу талантов, HDTV 1080i]

Страницы:  1

Тема закрыта
Автор
Сообщение

MMMkuzmich

Стаж: 2 месяца 17 дней

Сообщений: 51

11-Дек-16 22:33 (1 месяц 5 дней назад, ред. 11-Дек-16 22:42)

[Цитировать] 

Лучше всех 05 выпуск от 2016.12.11
Дата/Год выпуска: 2016
Страна: Россия
Жанр: Детское телевизионное шоу талантов
Продолжительность: 01:27:00 выпуск
Перевод: Не требуется
Ведущий: Максим Галкин
Телеканал: Первый HD
Описание: Детское телевизионное шоу талантов, куда приглашаются юные участники от 3 до 12 лет. Если ваш ребенок проявляет экстраординарные способности в творчестве, спорте или науке, если он лучше всех поет, танцует, показывает фокусы или чеканит мяч, и кроме того, не боится сцены и не лезет за словом в карман, значит, вам сюда!
Каждое воскресенье в студии Первого канала маленькие дарования будут демонстрировать свои таланты и непосредственность, а также доказывать зрителям, что они - лучше всех.
Качество: HDTV 1080i
Контейнер: TS
Видео кодек: H.264
Аудио кодек: MP2
Видео: H264; 1920x1080 (16:9); 25.000 fps; ~7 221 Kbps
Аудио: MPEG Audio 48000Hz stereo 192 Кбит/сек
MediaInfo
General
ID : 1 (0x1)
Complete name : E:\Temp\Лучше всех 05 выпуск от 2016.12.11.ts
Format : MPEG-TS
File size : 4.74 GiB
Duration : 1 h 27 min
Overall bit rate mode : Variable
Overall bit rate : 7 801 kb/s
Video
ID : 68 (0x44)
Menu ID : 1 (0x1)
Format : AVC
Format/Info : Advanced Video Codec
Format profile : High@L4
Format settings, CABAC : Yes
Format settings, ReFrames : 3 frames
Format settings, GOP : M=4, N=28
Codec ID : 27
Duration : 1 h 27 min
Bit rate : 7 221 kb/s
Width : 1 920 pixels
Height : 1 080 pixels
Display aspect ratio : 16:9
Frame rate : 25.000 FPS
Standard : Component
Color space : YUV
Chroma subsampling : 4:2:0
Bit depth : 8 bits
Scan type : Interlaced
Scan type, store method : Separated fields
Scan order : Top Field First
Bits/(Pixel*Frame) : 0.139
Stream size : 4.39 GiB (93%)
Color range : Limited
Color primaries : BT.709
Transfer characteristics : BT.709
Matrix coefficients : BT.709
Audio
ID : 69 (0x45)
Menu ID : 1 (0x1)
Format : MPEG Audio
Format version : Version 1
Format profile : Layer 2
Codec ID : 3
Duration : 1 h 27 min
Bit rate mode : Constant
Bit rate : 192 kb/s
Channel(s) : 2 channels
Sampling rate : 48.0 kHz
Compression mode : Lossy
Stream size : 120 MiB (2%)
Language : Russian
Скриншоты
[Профиль]  [ЛС] 

NasenPoint

Стаж: 4 года 7 месяцев

Сообщений: 28

12-Дек-16 00:35 (спустя 2 часа 2 минуты)

[Цитировать] 

MMMkuzmich !!! Спасибо за качество и оперативность !!!
[Профиль]  [ЛС] 

Aids

Moderator gray

Стаж: 7 лет 1 месяц

Сообщений: 3571

20-Дек-16 11:21 (спустя 8 дней)

[Цитировать] 

http://maintracker.org/forum/viewtopic.php?t=5328358
[Профиль]  [ЛС] 

21-Дек-16 10:41 (спустя 23 часа)

Тема была перенесена из форума Развлекательные телепередачи и шоу, приколы и юмор в форум Архив (Приколы и юмор)
Aids
 
 
Тема закрыта
Loading...
Error