Адрес РуТрекера для пользователей РФ - MainTracker.org

Расскажи друзьям:  

(Folk) [CD] VA - Мифы, сказки, предания манси (вогулов) - 2005, FLAC (image+.cue), lossless

Страницы:  1

Ответить
Автор
Сообщение

$Shorox

RG Торрентс-Книги

Стаж: 8 лет 7 месяцев

Сообщений: 2805

$Shorox · 15-Авг-16 04:52 (1 год 1 месяц назад, ред. 02-Сен-16 21:19)

Мифы, сказки, предания манси (вогулов)
Жанр: Folk
Носитель: CD
Страна-производитель диска (релиза): Россия
Год издания: 2005
Издатель (лейбл): РАН СО Институт филологии
Страна исполнителя (группы): Россия
Аудиокодек: FLAC (*.flac)
Тип рипа: image+.cue
Битрейт аудио: lossless
Продолжительность: 01:10:45
Источник (релизер): $Shorox
Наличие сканов в содержимом раздачи: нет
Это компакт-диск CD к этой книге: Мифы, сказки, предания манси (вогулов) (Памятники фольклора народов Сибири и Дальнего Востока) - 2005
Треклист
01. А.С. Мерова. Сказка О Трёх Мужчинах 09.03
02. А.К. Гындыбина. Призывная Песня Дочери-Царя-Священной-Воды 06.36
03. Д.С. Самбиндалова. Сказка о Тяка-Акв 04.17
04. М.Т. Двинянинова. Сказка о Тяка-Акв 11.23
05. П.Г. Куриков. Живут Жена И Муж 04.13
06. М.В. Кумаева. Старинный Рассказ 02.57
07. А.С. Мерова. Сказка Об Эква-Пыгрисе 07.36
08. П.Г. Куриков. Пакв-Посы-Войкан-Отыр 07.13
09. А.С. Мерова. Олень-Ойка 03.20
10 П.Г. Куриков. Сказка Об Эква-Пыгрисе 13.57
Общеее время звучания 70.45
Лог создания рипа
Exact Audio Copy V1.1 from 23. June 2015
Отчёт EAC об извлечении, выполненном 12. августа 2016, 15:52
- / Мифы манси (вогулов)
Дисковод: Optiarc DVD RW AD-7243S Adapter: 5 ID: 0
Режим чтения : Достоверность
Использование точного потока : Да
Отключение кэша аудио : Да
Использование указателей C2 : Нет
Коррекция смещения при чтении : 48
Способность читать области Lead-in и Lead-out : Нет
Заполнение пропущенных сэмплов тишиной : Да
Удаление блоков с тишиной в начале и конце : Нет
При вычислениях CRC использовались нулевые сэмплы : Да
Интерфейс : Установленный внешний ASPI-интерфейс
Выходной формат : Пользовательский кодировщик
Выбранный битрейт : 896 kBit/s
Качество : Высокий
Добавление ID3-тега : Нет
Утилита сжатия : C:\Program Files (x86)\Exact Audio Copy\Flac\flac.exe
Дополнительные параметры : -V -8 %source%
TOC извлечённого CD
Трек | Старт | Длительность | Начальный сектор | Конечный сектор
---------------------------------------------------------------------
1 | 0:00.00 | 9:04.56 | 0 | 40855
2 | 9:04.56 | 6:38.07 | 40856 | 70712
3 | 15:42.63 | 4:18.35 | 70713 | 90097
4 | 20:01.23 | 11:24.58 | 90098 | 141455
5 | 31:26.06 | 4:14.25 | 141456 | 160530
6 | 35:40.31 | 2:58.50 | 160531 | 173930
7 | 38:39.06 | 7:37.68 | 173931 | 208273
8 | 46:16.74 | 7:14.13 | 208274 | 240836
9 | 53:31.12 | 3:21.13 | 240837 | 255924
10 | 56:52.25 | 13:51.39 | 255925 | 318288
Характеристики диапазона извлечения и сообщения об ошибках
Выбранный диапазон
Имя файла F:\Proekt Original\Мифы манси (вогулов).wav
Пиковый уровень 96.5 %
Скорость извлечения 4.2 X
Качество диапазона 100.0 %
CRC теста 40A092CD
CRC копии 40A092CD
Копирование... OK
Ошибок не произошло
Конец отчёта
---- CUETools DB Plugin V2.1.6
[CTDB TOCID: O7UBYHv7_qSHFfGLCv7XkvKefr8-] found
Submit result: already submitted
Track | CTDB Status
1 | (1/1) Accurately ripped
2 | (1/1) Accurately ripped
3 | (1/1) Accurately ripped
4 | (1/1) Accurately ripped
5 | (1/1) Accurately ripped
6 | (1/1) Accurately ripped
7 | (1/1) Accurately ripped
8 | (1/1) Accurately ripped
9 | (1/1) Accurately ripped
10 | (1/1) Accurately ripped
Содержание индексной карты (.CUE)
REM GENRE Folklore
REM DATE 2005
REM DISCID 7F10930A
REM COMMENT "ExactAudioCopy v1.1"
PERFORMER ""
TITLE "Мифы манси (вогулов)"
FILE "Мифы манси (вогулов).flac" WAVE
TRACK 01 AUDIO
TITLE "Сказка о Трёх Мужчинах"
PERFORMER "А.С. Мерова"
INDEX 01 00:00:00
TRACK 02 AUDIO
TITLE "Призывная Песня Дочери-Царя-Священной-Воды"
PERFORMER "А.К. Гындыбина"
INDEX 00 09:02:56
INDEX 01 09:04:56
TRACK 03 AUDIO
TITLE "Сказка о Тяка-Акв"
PERFORMER "Д.С. Самбиндалова"
INDEX 00 15:40:63
INDEX 01 15:42:63
TRACK 04 AUDIO
TITLE "Сказка о Тяка-Акв"
PERFORMER "М.Т. Двинянинова"
INDEX 00 19:59:23
INDEX 01 20:01:23
TRACK 05 AUDIO
TITLE "Жена и Муж"
PERFORMER "П.Г. Куриков"
INDEX 00 31:24:06
INDEX 01 31:26:06
TRACK 06 AUDIO
TITLE "Старинный Рассказ"
PERFORMER "М.В. Кумаева"
INDEX 00 35:38:31
INDEX 01 35:40:31
TRACK 07 AUDIO
TITLE "Сказка об Эква-Пыгрисе"
PERFORMER "А.С. Мерова"
INDEX 00 38:37:06
INDEX 01 38:39:06
TRACK 08 AUDIO
TITLE "Пакв-Посы-Войкан-Отыр"
PERFORMER "П.Г. Куриков"
INDEX 00 46:14:74
INDEX 01 46:16:74
TRACK 09 AUDIO
TITLE "Олень-Ойка"
PERFORMER "А.С. Мерова"
INDEX 00 53:29:12
INDEX 01 53:31:12
TRACK 10 AUDIO
TITLE "Сказка об Эква-Пыгрисе"
PERFORMER "П.Г. Куриков"
INDEX 00 56:50:25
INDEX 01 56:52:25
Download
Чтобы скачать .torrent файл необходима регистрация
Сайт не распространяет и не хранит электронные версии произведений, а лишь предоставляет доступ к создаваемому пользователями каталогу ссылок на торрент-файлы, которые содержат только списки хеш-сумм
[Профиль]  [ЛС] 

$Shorox

RG Торрентс-Книги

Стаж: 8 лет 7 месяцев

Сообщений: 2805

$Shorox · 02-Сен-16 21:20 (спустя 18 дней)

[Цитировать] 

Это компакт-диск CD к этой книге: Мифы, сказки, предания манси (вогулов) (Памятники фольклора народов Сибири и Дальнего Востока) - 2005
[Профиль]  [ЛС] 

Winter life

Стаж: 1 год 5 месяцев

Сообщений: 16


Winter life · 16-Авг-17 22:46 (спустя 11 месяцев)

[Цитировать] 

Раздайте, пожалуйста.
[Профиль]  [ЛС] 
 
Ответить
Loading...
Error