Адрес РуТрекера для пользователей РФ - MainTracker.org

Расскажи друзьям:  

Полное руководство по уничтожению 6 макс игр [2014, покер, вод, poker, vod, Pleno1, ENG] (Видеоурок)

Страницы:  1

Ответить
Автор
Сообщение

intellect

Стаж: 12 лет 11 месяцев

Сообщений: 39436


intellect · 06-Июн-16 07:13 (1 год 4 месяца назад, ред. 06-Июн-16 08:10)

Полное руководство по уничтожению 6 макс игр
Тематика: покер, вод, poker, vod, Pleno1
Тип раздаваемого материала: Видеоурок
Продолжительность: 07:59:00
Год выпуска: 2014
Язык: Английский
Перевод: Любительcкий (одноголосый)
Описание: Видеокурс "Полное руководство по уничтожению 6 макс игр" - это взгляд на современную эксплуатационную игру с точки зрения сильно плюсового гриндера со средних лимитов (pleno1 играет одновременно 8 столов ZOOM NL200-NL500 с винрейтом 7BB/100).
Pleno1 (автор) об этом курсе:
Перед тем как создать данный курс я представил себя на месте игрока NL50-NL100. В первую очередь я адресовал самые сложные игровые моменты для регов с этих лимитов, чтобы максимально ускорить их прогресс. Мой высокий винрейт определяется сочетанием хорошего понимания фундаментальных основ игры в покер, а также умением и желанием выходить за рамки стандарта, что максимизировать свою прибыль. В этом курсе я расскажу и покажу как эффективно решать ситуации, с которыми у обычных игроков возникают проблемы.
Почему вам стоит выбрать данный курс?
  1. Я являюсь активным игроком, в отличии от многих тренеров и авторов учебных материалов.
  2. Мой винрейт сравним с винрейтами топовых регуляров моего лимита.
  3. Я учу тем вещам, которые знаю в совершенстве и которые применяю на практике сам.
Состав курса:
  1. Введение
  2. ХУД и статы
  3. Игра с малого и большого блайндов (теория)
  4. Красная линия (теория)
  5. Лимпы с СБ (теория)
  6. NL25 live 2 стола
  7. NL100 live 2 стола
  8. NL200 live 2 стола
  9. NL500 live 2 стола
  10. NL100 4 стола
  11. NL200 4 стола
  12. NL50 live 2 стола (bonus video)
  13. NL100 Zoom 6max обзор сессии (bonus video)
MediaInfo
Общее
Полное имя : Cash - pleno HUD.xml
Размер файла : 334 Кбайт
Общее
Полное имя : _0. Вступление.mp4
Формат : MPEG-4
Профиль формата : Base Media
Идентификатор кодека : isom (isom/iso2/avc1/mp41)
Размер файла : 17,6 Мбайт
Продолжительность : 3 м. 54 с.
Общий поток : 629 Кбит/сек
Описание : AverMedia_c285_001.001.004
Дата кодирования : UTC 2016-01-13 14:36:14
Дата пометки : UTC 2016-01-13 14:36:14
Программа кодирования : Lavf52.93.0
Примечание : Advanced Video Compressor - WinSoftMagic.com
Видео
Идентификатор : 1
Формат : AVC
Формат/Информация : Advanced Video Codec
Профиль формата : High@L3.2
Параметр CABAC формата : Да
Параметр ReFrames формата : 3 кадра
Идентификатор кодека : avc1
Идентификатор кодека/Информация : Advanced Video Coding
Продолжительность : 3 м. 54 с.
Битрейт : 500 Кбит/сек
Ширина : 1292 пикселя
Высота : 776 пикселей
Соотношение сторон : 5:3
Режим частоты кадров : Постоянный
Частота кадров : 10,000 кадров/сек
Цветовое пространство : YUV
Субдискретизация насыщенности : 4:2:0
Битовая глубина : 8 бит
Тип развёртки : Прогрессивная
Бит/(Пиксели*Кадры) : 0.050
Размер потока : 14,0 Мбайт (79%)
Библиотека кодирования : x264 core 112
Настройки программы : cabac=1 / ref=3 / deblock=1:0:0 / analyse=0x3:0x113 / me=hex / subme=7 / psy=1 / psy_rd=1.00:0.00 / mixed_ref=1 / me_range=16 / chroma_me=1 / trellis=1 / 8x8dct=1 / cqm=0 / deadzone=21,11 / fast_pskip=1 / chroma_qp_offset=-2 / threads=3 / sliced_threads=0 / nr=0 / decimate=1 / interlaced=0 / constrained_intra=0 / bframes=3 / b_pyramid=0 / b_adapt=1 / b_bias=0 / direct=1 / weightb=1 / open_gop=0 / weightp=2 / keyint=250 / keyint_min=25 / scenecut=40 / intra_refresh=0 / rc_lookahead=40 / rc=abr / mbtree=1 / bitrate=500 / ratetol=1.0 / qcomp=0.60 / qpmin=10 / qpmax=51 / qpstep=4 / ip_ratio=1.41 / aq=1:1.00
Дата кодирования : UTC 2016-01-13 14:36:14
Дата пометки : UTC 2016-01-13 14:36:14
Аудио
Идентификатор : 2
Формат : MPEG Audio
Версия формата : Version 1
Профиль формата : Layer 3
Режим : Joint stereo
Расширение режима : MS Stereo
Идентификатор кодека : 6B
Продолжительность : 3 м. 54 с.
Вид битрейта : Постоянный
Битрейт : 128 Кбит/сек
Каналы : 2 канала
Частота : 48,0 КГц
Метод сжатия : С потерями
Размер потока : 3,58 Мбайт (20%)
Дата кодирования : UTC 2016-01-13 14:36:14
Дата пометки : UTC 2016-01-13 14:36:14
Общее
Полное имя : _1. ХУД и статы.mp4
Формат : MPEG-4
Профиль формата : Base Media
Идентификатор кодека : isom (isom/iso2/avc1/mp41)
Размер файла : 55,9 Мбайт
Продолжительность : 12 м.
Общий поток : 628 Кбит/сек
Описание : AverMedia_c285_001.001.004
Дата кодирования : UTC 2016-01-13 14:36:14
Дата пометки : UTC 2016-01-13 14:36:14
Программа кодирования : Lavf52.93.0
Примечание : Advanced Video Compressor - WinSoftMagic.com
Видео
Идентификатор : 1
Формат : AVC
Формат/Информация : Advanced Video Codec
Профиль формата : High@L3.2
Параметр CABAC формата : Да
Параметр ReFrames формата : 3 кадра
Идентификатор кодека : avc1
Идентификатор кодека/Информация : Advanced Video Coding
Продолжительность : 12 м.
Битрейт : 500 Кбит/сек
Ширина : 1292 пикселя
Высота : 776 пикселей
Соотношение сторон : 5:3
Режим частоты кадров : Постоянный
Частота кадров : 10,000 кадров/сек
Цветовое пространство : YUV
Субдискретизация насыщенности : 4:2:0
Битовая глубина : 8 бит
Тип развёртки : Прогрессивная
Бит/(Пиксели*Кадры) : 0.050
Размер потока : 44,3 Мбайт (79%)
Библиотека кодирования : x264 core 112
Настройки программы : cabac=1 / ref=3 / deblock=1:0:0 / analyse=0x3:0x113 / me=hex / subme=7 / psy=1 / psy_rd=1.00:0.00 / mixed_ref=1 / me_range=16 / chroma_me=1 / trellis=1 / 8x8dct=1 / cqm=0 / deadzone=21,11 / fast_pskip=1 / chroma_qp_offset=-2 / threads=3 / sliced_threads=0 / nr=0 / decimate=1 / interlaced=0 / constrained_intra=0 / bframes=3 / b_pyramid=0 / b_adapt=1 / b_bias=0 / direct=1 / weightb=1 / open_gop=0 / weightp=2 / keyint=250 / keyint_min=25 / scenecut=40 / intra_refresh=0 / rc_lookahead=40 / rc=abr / mbtree=1 / bitrate=500 / ratetol=1.0 / qcomp=0.60 / qpmin=10 / qpmax=51 / qpstep=4 / ip_ratio=1.41 / aq=1:1.00
Дата кодирования : UTC 2016-01-13 14:36:14
Дата пометки : UTC 2016-01-13 14:36:14
Аудио
Идентификатор : 2
Формат : MPEG Audio
Версия формата : Version 1
Профиль формата : Layer 3
Режим : Joint stereo
Расширение режима : MS Stereo
Идентификатор кодека : 6B
Продолжительность : 12 м.
Вид битрейта : Постоянный
Битрейт : 128 Кбит/сек
Каналы : 2 канала
Частота : 48,0 КГц
Метод сжатия : С потерями
Размер потока : 11,4 Мбайт (20%)
Дата кодирования : UTC 2016-01-13 14:36:14
Дата пометки : UTC 2016-01-13 14:36:14
Общее
Полное имя : _10. nl200 4 tables.mp4
Формат : MPEG-4
Профиль формата : Base Media
Идентификатор кодека : isom (isom/iso2/avc1/mp41)
Размер файла : 161 Мбайт
Продолжительность : 36 м.
Общий поток : 627 Кбит/сек
Описание : AverMedia_c285_001.001.004
Дата кодирования : UTC 2016-01-14 14:59:29
Дата пометки : UTC 2016-01-14 14:59:29
Программа кодирования : Lavf52.93.0
Примечание : Advanced Video Compressor - WinSoftMagic.com
Видео
Идентификатор : 1
Формат : AVC
Формат/Информация : Advanced Video Codec
Профиль формата : High@L3.2
Параметр CABAC формата : Да
Параметр ReFrames формата : 3 кадра
Идентификатор кодека : avc1
Идентификатор кодека/Информация : Advanced Video Coding
Продолжительность : 36 м.
Битрейт : 500 Кбит/сек
Ширина : 1292 пикселя
Высота : 776 пикселей
Соотношение сторон : 5:3
Режим частоты кадров : Постоянный
Частота кадров : 10,000 кадров/сек
Цветовое пространство : YUV
Субдискретизация насыщенности : 4:2:0
Битовая глубина : 8 бит
Тип развёртки : Прогрессивная
Бит/(Пиксели*Кадры) : 0.050
Размер потока : 128 Мбайт (79%)
Библиотека кодирования : x264 core 112
Настройки программы : cabac=1 / ref=3 / deblock=1:0:0 / analyse=0x3:0x113 / me=hex / subme=7 / psy=1 / psy_rd=1.00:0.00 / mixed_ref=1 / me_range=16 / chroma_me=1 / trellis=1 / 8x8dct=1 / cqm=0 / deadzone=21,11 / fast_pskip=1 / chroma_qp_offset=-2 / threads=3 / sliced_threads=0 / nr=0 / decimate=1 / interlaced=0 / constrained_intra=0 / bframes=3 / b_pyramid=0 / b_adapt=1 / b_bias=0 / direct=1 / weightb=1 / open_gop=0 / weightp=2 / keyint=250 / keyint_min=25 / scenecut=40 / intra_refresh=0 / rc_lookahead=40 / rc=abr / mbtree=1 / bitrate=500 / ratetol=1.0 / qcomp=0.60 / qpmin=10 / qpmax=51 / qpstep=4 / ip_ratio=1.41 / aq=1:1.00
Дата кодирования : UTC 2016-01-14 14:59:29
Дата пометки : UTC 2016-01-14 14:59:29
Аудио
Идентификатор : 2
Формат : MPEG Audio
Версия формата : Version 1
Профиль формата : Layer 3
Режим : Joint stereo
Расширение режима : MS Stereo
Идентификатор кодека : 6B
Продолжительность : 36 м.
Вид битрейта : Постоянный
Битрейт : 128 Кбит/сек
Каналы : 2 канала
Частота : 48,0 КГц
Метод сжатия : С потерями
Размер потока : 33,0 Мбайт (20%)
Дата кодирования : UTC 2016-01-14 14:59:29
Дата пометки : UTC 2016-01-14 14:59:29
Общее
Полное имя : _11. NL50 live 2 tables (bonus video).mp4
Формат : MPEG-4
Профиль формата : Base Media
Идентификатор кодека : isom (isom/iso2/avc1/mp41)
Размер файла : 242 Мбайт
Продолжительность : 53 м.
Общий поток : 630 Кбит/сек
Описание : AverMedia_c285_001.001.004
Дата кодирования : UTC 2016-01-14 14:59:29
Дата пометки : UTC 2016-01-14 14:59:29
Программа кодирования : Lavf52.93.0
Примечание : Advanced Video Compressor - WinSoftMagic.com
Видео
Идентификатор : 1
Формат : AVC
Формат/Информация : Advanced Video Codec
Профиль формата : High@L3.2
Параметр CABAC формата : Да
Параметр ReFrames формата : 3 кадра
Идентификатор кодека : avc1
Идентификатор кодека/Информация : Advanced Video Coding
Продолжительность : 53 м.
Битрейт : 500 Кбит/сек
Ширина : 1292 пикселя
Высота : 776 пикселей
Соотношение сторон : 5:3
Режим частоты кадров : Постоянный
Частота кадров : 10,000 кадров/сек
Цветовое пространство : YUV
Субдискретизация насыщенности : 4:2:0
Битовая глубина : 8 бит
Тип развёртки : Прогрессивная
Бит/(Пиксели*Кадры) : 0.050
Размер потока : 192 Мбайт (79%)
Библиотека кодирования : x264 core 112
Настройки программы : cabac=1 / ref=3 / deblock=1:0:0 / analyse=0x3:0x113 / me=hex / subme=7 / psy=1 / psy_rd=1.00:0.00 / mixed_ref=1 / me_range=16 / chroma_me=1 / trellis=1 / 8x8dct=1 / cqm=0 / deadzone=21,11 / fast_pskip=1 / chroma_qp_offset=-2 / threads=3 / sliced_threads=0 / nr=0 / decimate=1 / interlaced=0 / constrained_intra=0 / bframes=3 / b_pyramid=0 / b_adapt=1 / b_bias=0 / direct=1 / weightb=1 / open_gop=0 / weightp=2 / keyint=250 / keyint_min=25 / scenecut=40 / intra_refresh=0 / rc_lookahead=40 / rc=abr / mbtree=1 / bitrate=500 / ratetol=1.0 / qcomp=0.60 / qpmin=10 / qpmax=51 / qpstep=4 / ip_ratio=1.41 / aq=1:1.00
Дата кодирования : UTC 2016-01-14 14:59:29
Дата пометки : UTC 2016-01-14 14:59:29
Аудио
Идентификатор : 2
Формат : MPEG Audio
Версия формата : Version 1
Профиль формата : Layer 3
Режим : Joint stereo
Расширение режима : MS Stereo
Идентификатор кодека : 6B
Продолжительность : 53 м.
Вид битрейта : Постоянный
Битрейт : 128 Кбит/сек
Каналы : 2 канала
Частота : 48,0 КГц
Метод сжатия : С потерями
Размер потока : 49,3 Мбайт (20%)
Дата кодирования : UTC 2016-01-14 14:59:29
Дата пометки : UTC 2016-01-14 14:59:29
Общее
Полное имя : _12. NL100 Zoom 6max session review (bonus video).mp4
Формат : MPEG-4
Профиль формата : Base Media
Идентификатор кодека : isom (isom/iso2/avc1/mp41)
Размер файла : 217 Мбайт
Продолжительность : 49 м.
Общий поток : 612 Кбит/сек
Описание : AverMedia_c285_001.001.004
Дата кодирования : UTC 2016-01-14 14:59:29
Дата пометки : UTC 2016-01-14 14:59:29
Программа кодирования : Lavf52.93.0
Примечание : Advanced Video Compressor - WinSoftMagic.com
Видео
Идентификатор : 1
Формат : AVC
Формат/Информация : Advanced Video Codec
Профиль формата : High@L3.2
Параметр CABAC формата : Да
Параметр ReFrames формата : 3 кадра
Идентификатор кодека : avc1
Идентификатор кодека/Информация : Advanced Video Coding
Продолжительность : 49 м.
Битрейт : 500 Кбит/сек
Ширина : 1292 пикселя
Высота : 776 пикселей
Соотношение сторон : 5:3
Режим частоты кадров : Постоянный
Частота кадров : 10,000 кадров/сек
Цветовое пространство : YUV
Субдискретизация насыщенности : 4:2:0
Битовая глубина : 8 бит
Тип развёртки : Прогрессивная
Бит/(Пиксели*Кадры) : 0.050
Размер потока : 170 Мбайт (79%)
Библиотека кодирования : x264 core 112
Настройки программы : cabac=1 / ref=3 / deblock=1:0:0 / analyse=0x3:0x113 / me=hex / subme=7 / psy=1 / psy_rd=1.00:0.00 / mixed_ref=1 / me_range=16 / chroma_me=1 / trellis=1 / 8x8dct=1 / cqm=0 / deadzone=21,11 / fast_pskip=1 / chroma_qp_offset=-2 / threads=3 / sliced_threads=0 / nr=0 / decimate=1 / interlaced=0 / constrained_intra=0 / bframes=3 / b_pyramid=0 / b_adapt=1 / b_bias=0 / direct=1 / weightb=1 / open_gop=0 / weightp=2 / keyint=250 / keyint_min=25 / scenecut=40 / intra_refresh=0 / rc_lookahead=40 / rc=abr / mbtree=1 / bitrate=500 / ratetol=1.0 / qcomp=0.60 / qpmin=10 / qpmax=51 / qpstep=4 / ip_ratio=1.41 / aq=1:1.00
Дата кодирования : UTC 2016-01-14 14:59:29
Дата пометки : UTC 2016-01-14 14:59:29
Аудио
Идентификатор : 2
Формат : MPEG Audio
Версия формата : Version 1
Профиль формата : Layer 3
Режим : Joint stereo
Расширение режима : MS Stereo
Идентификатор кодека : 6B
Продолжительность : 49 м.
Вид битрейта : Постоянный
Битрейт : 128 Кбит/сек
Каналы : 2 канала
Частота : 48,0 КГц
Метод сжатия : С потерями
Размер потока : 45,3 Мбайт (21%)
Дата кодирования : UTC 2016-01-14 14:59:29
Дата пометки : UTC 2016-01-14 14:59:29
Общее
Полное имя : _2. Игра с малого и большого блаиндов (теория).mp4
Формат : MPEG-4
Профиль формата : Base Media
Идентификатор кодека : isom (isom/iso2/avc1/mp41)
Размер файла : 158 Мбайт
Продолжительность : 34 м.
Общий поток : 630 Кбит/сек
Описание : AverMedia_c285_001.001.004
Дата кодирования : UTC 2016-01-13 14:36:14
Дата пометки : UTC 2016-01-13 14:36:14
Программа кодирования : Lavf52.93.0
Примечание : Advanced Video Compressor - WinSoftMagic.com
Видео
Идентификатор : 1
Формат : AVC
Формат/Информация : Advanced Video Codec
Профиль формата : High@L3.2
Параметр CABAC формата : Да
Параметр ReFrames формата : 3 кадра
Идентификатор кодека : avc1
Идентификатор кодека/Информация : Advanced Video Coding
Продолжительность : 34 м.
Битрейт : 500 Кбит/сек
Ширина : 1292 пикселя
Высота : 776 пикселей
Соотношение сторон : 5:3
Режим частоты кадров : Постоянный
Частота кадров : 10,000 кадров/сек
Цветовое пространство : YUV
Субдискретизация насыщенности : 4:2:0
Битовая глубина : 8 бит
Тип развёртки : Прогрессивная
Бит/(Пиксели*Кадры) : 0.050
Размер потока : 125 Мбайт (79%)
Библиотека кодирования : x264 core 112
Настройки программы : cabac=1 / ref=3 / deblock=1:0:0 / analyse=0x3:0x113 / me=hex / subme=7 / psy=1 / psy_rd=1.00:0.00 / mixed_ref=1 / me_range=16 / chroma_me=1 / trellis=1 / 8x8dct=1 / cqm=0 / deadzone=21,11 / fast_pskip=1 / chroma_qp_offset=-2 / threads=3 / sliced_threads=0 / nr=0 / decimate=1 / interlaced=0 / constrained_intra=0 / bframes=3 / b_pyramid=0 / b_adapt=1 / b_bias=0 / direct=1 / weightb=1 / open_gop=0 / weightp=2 / keyint=250 / keyint_min=25 / scenecut=40 / intra_refresh=0 / rc_lookahead=40 / rc=abr / mbtree=1 / bitrate=500 / ratetol=1.0 / qcomp=0.60 / qpmin=10 / qpmax=51 / qpstep=4 / ip_ratio=1.41 / aq=1:1.00
Дата кодирования : UTC 2016-01-13 14:36:14
Дата пометки : UTC 2016-01-13 14:36:14
Аудио
Идентификатор : 2
Формат : MPEG Audio
Версия формата : Version 1
Профиль формата : Layer 3
Режим : Joint stereo
Расширение режима : MS Stereo
Идентификатор кодека : 6B
Продолжительность : 34 м.
Вид битрейта : Постоянный
Битрейт : 128 Кбит/сек
Каналы : 2 канала
Частота : 48,0 КГц
Метод сжатия : С потерями
Размер потока : 32,0 Мбайт (20%)
Дата кодирования : UTC 2016-01-13 14:36:14
Дата пометки : UTC 2016-01-13 14:36:14
Общее
Полное имя : _3. Красная линия (теория).mp4
Формат : MPEG-4
Профиль формата : Base Media
Идентификатор кодека : isom (isom/iso2/avc1/mp41)
Размер файла : 208 Мбайт
Продолжительность : 46 м.
Общий поток : 633 Кбит/сек
Описание : AverMedia_c285_001.001.004
Дата кодирования : UTC 2016-01-13 14:36:14
Дата пометки : UTC 2016-01-13 14:36:14
Программа кодирования : Lavf52.93.0
Примечание : Advanced Video Compressor - WinSoftMagic.com
Видео
Идентификатор : 1
Формат : AVC
Формат/Информация : Advanced Video Codec
Профиль формата : High@L3.2
Параметр CABAC формата : Да
Параметр ReFrames формата : 3 кадра
Идентификатор кодека : avc1
Идентификатор кодека/Информация : Advanced Video Coding
Продолжительность : 46 м.
Битрейт : 500 Кбит/сек
Ширина : 1292 пикселя
Высота : 776 пикселей
Соотношение сторон : 5:3
Режим частоты кадров : Постоянный
Частота кадров : 10,000 кадров/сек
Цветовое пространство : YUV
Субдискретизация насыщенности : 4:2:0
Битовая глубина : 8 бит
Тип развёртки : Прогрессивная
Бит/(Пиксели*Кадры) : 0.050
Размер потока : 165 Мбайт (79%)
Библиотека кодирования : x264 core 112
Настройки программы : cabac=1 / ref=3 / deblock=1:0:0 / analyse=0x3:0x113 / me=hex / subme=7 / psy=1 / psy_rd=1.00:0.00 / mixed_ref=1 / me_range=16 / chroma_me=1 / trellis=1 / 8x8dct=1 / cqm=0 / deadzone=21,11 / fast_pskip=1 / chroma_qp_offset=-2 / threads=3 / sliced_threads=0 / nr=0 / decimate=1 / interlaced=0 / constrained_intra=0 / bframes=3 / b_pyramid=0 / b_adapt=1 / b_bias=0 / direct=1 / weightb=1 / open_gop=0 / weightp=2 / keyint=250 / keyint_min=25 / scenecut=40 / intra_refresh=0 / rc_lookahead=40 / rc=abr / mbtree=1 / bitrate=500 / ratetol=1.0 / qcomp=0.60 / qpmin=10 / qpmax=51 / qpstep=4 / ip_ratio=1.41 / aq=1:1.00
Дата кодирования : UTC 2016-01-13 14:36:14
Дата пометки : UTC 2016-01-13 14:36:14
Аудио
Идентификатор : 2
Формат : MPEG Audio
Версия формата : Version 1
Профиль формата : Layer 3
Режим : Joint stereo
Расширение режима : MS Stereo
Идентификатор кодека : 6B
Продолжительность : 46 м.
Вид битрейта : Постоянный
Битрейт : 128 Кбит/сек
Каналы : 2 канала
Частота : 48,0 КГц
Метод сжатия : С потерями
Размер потока : 42,2 Мбайт (20%)
Дата кодирования : UTC 2016-01-13 14:36:14
Дата пометки : UTC 2016-01-13 14:36:14
Общее
Полное имя : _4. Лимпы с СБ (теория).mp4
Формат : MPEG-4
Профиль формата : Base Media
Идентификатор кодека : isom (isom/iso2/avc1/mp41)
Размер файла : 147 Мбайт
Продолжительность : 32 м.
Общий поток : 625 Кбит/сек
Описание : AverMedia_c285_001.001.004
Дата кодирования : UTC 2016-01-13 14:36:14
Дата пометки : UTC 2016-01-13 14:36:14
Программа кодирования : Lavf52.93.0
Примечание : Advanced Video Compressor - WinSoftMagic.com
Видео
Идентификатор : 1
Формат : AVC
Формат/Информация : Advanced Video Codec
Профиль формата : High@L3.2
Параметр CABAC формата : Да
Параметр ReFrames формата : 3 кадра
Идентификатор кодека : avc1
Идентификатор кодека/Информация : Advanced Video Coding
Продолжительность : 32 м.
Битрейт : 500 Кбит/сек
Ширина : 1292 пикселя
Высота : 776 пикселей
Соотношение сторон : 5:3
Режим частоты кадров : Постоянный
Частота кадров : 10,000 кадров/сек
Цветовое пространство : YUV
Субдискретизация насыщенности : 4:2:0
Битовая глубина : 8 бит
Тип развёртки : Прогрессивная
Бит/(Пиксели*Кадры) : 0.050
Размер потока : 117 Мбайт (79%)
Библиотека кодирования : x264 core 112
Настройки программы : cabac=1 / ref=3 / deblock=1:0:0 / analyse=0x3:0x113 / me=hex / subme=7 / psy=1 / psy_rd=1.00:0.00 / mixed_ref=1 / me_range=16 / chroma_me=1 / trellis=1 / 8x8dct=1 / cqm=0 / deadzone=21,11 / fast_pskip=1 / chroma_qp_offset=-2 / threads=3 / sliced_threads=0 / nr=0 / decimate=1 / interlaced=0 / constrained_intra=0 / bframes=3 / b_pyramid=0 / b_adapt=1 / b_bias=0 / direct=1 / weightb=1 / open_gop=0 / weightp=2 / keyint=250 / keyint_min=25 / scenecut=40 / intra_refresh=0 / rc_lookahead=40 / rc=abr / mbtree=1 / bitrate=500 / ratetol=1.0 / qcomp=0.60 / qpmin=10 / qpmax=51 / qpstep=4 / ip_ratio=1.41 / aq=1:1.00
Дата кодирования : UTC 2016-01-13 14:36:14
Дата пометки : UTC 2016-01-13 14:36:14
Аудио
Идентификатор : 2
Формат : MPEG Audio
Версия формата : Version 1
Профиль формата : Layer 3
Режим : Joint stereo
Расширение режима : MS Stereo
Идентификатор кодека : 6B
Продолжительность : 32 м.
Вид битрейта : Постоянный
Битрейт : 128 Кбит/сек
Каналы : 2 канала
Частота : 48,0 КГц
Метод сжатия : С потерями
Размер потока : 30,2 Мбайт (20%)
Дата кодирования : UTC 2016-01-13 14:36:14
Дата пометки : UTC 2016-01-13 14:36:14
Общее
Полное имя : _5. NL25 live 2 tables.mp4
Формат : MPEG-4
Профиль формата : Base Media
Идентификатор кодека : isom (isom/iso2/avc1/mp41)
Размер файла : 142 Мбайт
Продолжительность : 32 м.
Общий поток : 603 Кбит/сек
Описание : AverMedia_c285_001.001.004
Дата кодирования : UTC 2016-01-13 14:36:14
Дата пометки : UTC 2016-01-13 14:36:14
Программа кодирования : Lavf52.93.0
Примечание : Advanced Video Compressor - WinSoftMagic.com
Видео
Идентификатор : 1
Формат : AVC
Формат/Информация : Advanced Video Codec
Профиль формата : High@L3.2
Параметр CABAC формата : Да
Параметр ReFrames формата : 3 кадра
Идентификатор кодека : avc1
Идентификатор кодека/Информация : Advanced Video Coding
Продолжительность : 32 м.
Битрейт : 473 Кбит/сек
Номинальный битрейт : 500 Кбит/сек
Ширина : 1292 пикселя
Высота : 776 пикселей
Соотношение сторон : 5:3
Режим частоты кадров : Постоянный
Частота кадров : 10,000 кадров/сек
Цветовое пространство : YUV
Субдискретизация насыщенности : 4:2:0
Битовая глубина : 8 бит
Тип развёртки : Прогрессивная
Бит/(Пиксели*Кадры) : 0.047
Размер потока : 111 Мбайт (78%)
Библиотека кодирования : x264 core 112
Настройки программы : cabac=1 / ref=3 / deblock=1:0:0 / analyse=0x3:0x113 / me=hex / subme=7 / psy=1 / psy_rd=1.00:0.00 / mixed_ref=1 / me_range=16 / chroma_me=1 / trellis=1 / 8x8dct=1 / cqm=0 / deadzone=21,11 / fast_pskip=1 / chroma_qp_offset=-2 / threads=3 / sliced_threads=0 / nr=0 / decimate=1 / interlaced=0 / constrained_intra=0 / bframes=3 / b_pyramid=0 / b_adapt=1 / b_bias=0 / direct=1 / weightb=1 / open_gop=0 / weightp=2 / keyint=250 / keyint_min=25 / scenecut=40 / intra_refresh=0 / rc_lookahead=40 / rc=abr / mbtree=1 / bitrate=500 / ratetol=1.0 / qcomp=0.60 / qpmin=10 / qpmax=51 / qpstep=4 / ip_ratio=1.41 / aq=1:1.00
Дата кодирования : UTC 2016-01-13 14:36:14
Дата пометки : UTC 2016-01-13 14:36:14
Аудио
Идентификатор : 2
Формат : MPEG Audio
Версия формата : Version 1
Профиль формата : Layer 3
Режим : Joint stereo
Расширение режима : MS Stereo
Идентификатор кодека : 6B
Продолжительность : 32 м.
Вид битрейта : Постоянный
Битрейт : 128 Кбит/сек
Каналы : 2 канала
Частота : 48,0 КГц
Метод сжатия : С потерями
Размер потока : 30,1 Мбайт (21%)
Дата кодирования : UTC 2016-01-13 14:36:14
Дата пометки : UTC 2016-01-13 14:36:14
Общее
Полное имя : _6. NL100 live 2 tables..mp4
Формат : MPEG-4
Профиль формата : Base Media
Идентификатор кодека : isom (isom/iso2/avc1/mp41)
Размер файла : 232 Мбайт
Продолжительность : 51 м.
Общий поток : 629 Кбит/сек
Описание : AverMedia_c285_001.001.004
Дата кодирования : UTC 2016-01-13 14:36:14
Дата пометки : UTC 2016-01-13 14:36:14
Программа кодирования : Lavf52.93.0
Примечание : Advanced Video Compressor - WinSoftMagic.com
Видео
Идентификатор : 1
Формат : AVC
Формат/Информация : Advanced Video Codec
Профиль формата : High@L3.2
Параметр CABAC формата : Да
Параметр ReFrames формата : 3 кадра
Идентификатор кодека : avc1
Идентификатор кодека/Информация : Advanced Video Coding
Продолжительность : 51 м.
Битрейт : 500 Кбит/сек
Ширина : 1292 пикселя
Высота : 776 пикселей
Соотношение сторон : 5:3
Режим частоты кадров : Постоянный
Частота кадров : 10,000 кадров/сек
Цветовое пространство : YUV
Субдискретизация насыщенности : 4:2:0
Битовая глубина : 8 бит
Тип развёртки : Прогрессивная
Бит/(Пиксели*Кадры) : 0.050
Размер потока : 184 Мбайт (79%)
Библиотека кодирования : x264 core 112
Настройки программы : cabac=1 / ref=3 / deblock=1:0:0 / analyse=0x3:0x113 / me=hex / subme=7 / psy=1 / psy_rd=1.00:0.00 / mixed_ref=1 / me_range=16 / chroma_me=1 / trellis=1 / 8x8dct=1 / cqm=0 / deadzone=21,11 / fast_pskip=1 / chroma_qp_offset=-2 / threads=3 / sliced_threads=0 / nr=0 / decimate=1 / interlaced=0 / constrained_intra=0 / bframes=3 / b_pyramid=0 / b_adapt=1 / b_bias=0 / direct=1 / weightb=1 / open_gop=0 / weightp=2 / keyint=250 / keyint_min=25 / scenecut=40 / intra_refresh=0 / rc_lookahead=40 / rc=abr / mbtree=1 / bitrate=500 / ratetol=1.0 / qcomp=0.60 / qpmin=10 / qpmax=51 / qpstep=4 / ip_ratio=1.41 / aq=1:1.00
Дата кодирования : UTC 2016-01-13 14:36:14
Дата пометки : UTC 2016-01-13 14:36:14
Аудио
Идентификатор : 2
Формат : MPEG Audio
Версия формата : Version 1
Профиль формата : Layer 3
Режим : Joint stereo
Расширение режима : MS Stereo
Идентификатор кодека : 6B
Продолжительность : 51 м.
Вид битрейта : Постоянный
Битрейт : 128 Кбит/сек
Каналы : 2 канала
Частота : 48,0 КГц
Метод сжатия : С потерями
Размер потока : 47,3 Мбайт (20%)
Дата кодирования : UTC 2016-01-13 14:36:14
Дата пометки : UTC 2016-01-13 14:36:14
Общее
Полное имя : _7. nl200 live 2 tables.mp4
Формат : MPEG-4
Профиль формата : Base Media
Идентификатор кодека : isom (isom/iso2/avc1/mp41)
Размер файла : 239 Мбайт
Продолжительность : 53 м.
Общий поток : 630 Кбит/сек
Описание : AverMedia_c285_001.001.004
Дата кодирования : UTC 2016-01-14 14:59:29
Дата пометки : UTC 2016-01-14 14:59:29
Программа кодирования : Lavf52.93.0
Примечание : Advanced Video Compressor - WinSoftMagic.com
Видео
Идентификатор : 1
Формат : AVC
Формат/Информация : Advanced Video Codec
Профиль формата : High@L3.2
Параметр CABAC формата : Да
Параметр ReFrames формата : 3 кадра
Идентификатор кодека : avc1
Идентификатор кодека/Информация : Advanced Video Coding
Продолжительность : 53 м.
Битрейт : 500 Кбит/сек
Ширина : 1292 пикселя
Высота : 776 пикселей
Соотношение сторон : 5:3
Режим частоты кадров : Постоянный
Частота кадров : 10,000 кадров/сек
Цветовое пространство : YUV
Субдискретизация насыщенности : 4:2:0
Битовая глубина : 8 бит
Тип развёртки : Прогрессивная
Бит/(Пиксели*Кадры) : 0.050
Размер потока : 190 Мбайт (79%)
Библиотека кодирования : x264 core 112
Настройки программы : cabac=1 / ref=3 / deblock=1:0:0 / analyse=0x3:0x113 / me=hex / subme=7 / psy=1 / psy_rd=1.00:0.00 / mixed_ref=1 / me_range=16 / chroma_me=1 / trellis=1 / 8x8dct=1 / cqm=0 / deadzone=21,11 / fast_pskip=1 / chroma_qp_offset=-2 / threads=3 / sliced_threads=0 / nr=0 / decimate=1 / interlaced=0 / constrained_intra=0 / bframes=3 / b_pyramid=0 / b_adapt=1 / b_bias=0 / direct=1 / weightb=1 / open_gop=0 / weightp=2 / keyint=250 / keyint_min=25 / scenecut=40 / intra_refresh=0 / rc_lookahead=40 / rc=abr / mbtree=1 / bitrate=500 / ratetol=1.0 / qcomp=0.60 / qpmin=10 / qpmax=51 / qpstep=4 / ip_ratio=1.41 / aq=1:1.00
Дата кодирования : UTC 2016-01-14 14:59:29
Дата пометки : UTC 2016-01-14 14:59:29
Аудио
Идентификатор : 2
Формат : MPEG Audio
Версия формата : Version 1
Профиль формата : Layer 3
Режим : Joint stereo
Расширение режима : MS Stereo
Идентификатор кодека : 6B
Продолжительность : 53 м.
Вид битрейта : Постоянный
Битрейт : 128 Кбит/сек
Каналы : 2 канала
Частота : 48,0 КГц
Метод сжатия : С потерями
Размер потока : 48,6 Мбайт (20%)
Дата кодирования : UTC 2016-01-14 14:59:29
Дата пометки : UTC 2016-01-14 14:59:29
Общее
Полное имя : _8. nl500 live 2 tables.mp4
Формат : MPEG-4
Профиль формата : Base Media
Идентификатор кодека : isom (isom/iso2/avc1/mp41)
Размер файла : 157 Мбайт
Продолжительность : 34 м.
Общий поток : 630 Кбит/сек
Описание : AverMedia_c285_001.001.004
Дата кодирования : UTC 2016-01-14 14:59:29
Дата пометки : UTC 2016-01-14 14:59:29
Программа кодирования : Lavf52.93.0
Примечание : Advanced Video Compressor - WinSoftMagic.com
Видео
Идентификатор : 1
Формат : AVC
Формат/Информация : Advanced Video Codec
Профиль формата : High@L3.2
Параметр CABAC формата : Да
Параметр ReFrames формата : 3 кадра
Идентификатор кодека : avc1
Идентификатор кодека/Информация : Advanced Video Coding
Продолжительность : 34 м.
Битрейт : 500 Кбит/сек
Ширина : 1292 пикселя
Высота : 776 пикселей
Соотношение сторон : 5:3
Режим частоты кадров : Постоянный
Частота кадров : 10,000 кадров/сек
Цветовое пространство : YUV
Субдискретизация насыщенности : 4:2:0
Битовая глубина : 8 бит
Тип развёртки : Прогрессивная
Бит/(Пиксели*Кадры) : 0.050
Размер потока : 124 Мбайт (79%)
Библиотека кодирования : x264 core 112
Настройки программы : cabac=1 / ref=3 / deblock=1:0:0 / analyse=0x3:0x113 / me=hex / subme=7 / psy=1 / psy_rd=1.00:0.00 / mixed_ref=1 / me_range=16 / chroma_me=1 / trellis=1 / 8x8dct=1 / cqm=0 / deadzone=21,11 / fast_pskip=1 / chroma_qp_offset=-2 / threads=3 / sliced_threads=0 / nr=0 / decimate=1 / interlaced=0 / constrained_intra=0 / bframes=3 / b_pyramid=0 / b_adapt=1 / b_bias=0 / direct=1 / weightb=1 / open_gop=0 / weightp=2 / keyint=250 / keyint_min=25 / scenecut=40 / intra_refresh=0 / rc_lookahead=40 / rc=abr / mbtree=1 / bitrate=500 / ratetol=1.0 / qcomp=0.60 / qpmin=10 / qpmax=51 / qpstep=4 / ip_ratio=1.41 / aq=1:1.00
Дата кодирования : UTC 2016-01-14 14:59:29
Дата пометки : UTC 2016-01-14 14:59:29
Аудио
Идентификатор : 2
Формат : MPEG Audio
Версия формата : Version 1
Профиль формата : Layer 3
Режим : Joint stereo
Расширение режима : MS Stereo
Идентификатор кодека : 6B
Продолжительность : 34 м.
Вид битрейта : Постоянный
Битрейт : 128 Кбит/сек
Каналы : 2 канала
Частота : 48,0 КГц
Метод сжатия : С потерями
Размер потока : 31,9 Мбайт (20%)
Библиотека кодирования : LAMEЄ
Дата кодирования : UTC 2016-01-14 14:59:29
Дата пометки : UTC 2016-01-14 14:59:29
Общее
Полное имя : _9. nl100 4 tables.mp4
Формат : MPEG-4
Профиль формата : Base Media
Идентификатор кодека : isom (isom/iso2/avc1/mp41)
Размер файла : 188 Мбайт
Продолжительность : 41 м.
Общий поток : 630 Кбит/сек
Описание : AverMedia_c285_001.001.004
Дата кодирования : UTC 2016-01-14 14:59:29
Дата пометки : UTC 2016-01-14 14:59:29
Программа кодирования : Lavf52.93.0
Примечание : Advanced Video Compressor - WinSoftMagic.com
Видео
Идентификатор : 1
Формат : AVC
Формат/Информация : Advanced Video Codec
Профиль формата : High@L3.2
Параметр CABAC формата : Да
Параметр ReFrames формата : 3 кадра
Идентификатор кодека : avc1
Идентификатор кодека/Информация : Advanced Video Coding
Продолжительность : 41 м.
Битрейт : 500 Кбит/сек
Ширина : 1292 пикселя
Высота : 776 пикселей
Соотношение сторон : 5:3
Режим частоты кадров : Постоянный
Частота кадров : 10,000 кадров/сек
Цветовое пространство : YUV
Субдискретизация насыщенности : 4:2:0
Битовая глубина : 8 бит
Тип развёртки : Прогрессивная
Бит/(Пиксели*Кадры) : 0.050
Размер потока : 149 Мбайт (79%)
Библиотека кодирования : x264 core 112
Настройки программы : cabac=1 / ref=3 / deblock=1:0:0 / analyse=0x3:0x113 / me=hex / subme=7 / psy=1 / psy_rd=1.00:0.00 / mixed_ref=1 / me_range=16 / chroma_me=1 / trellis=1 / 8x8dct=1 / cqm=0 / deadzone=21,11 / fast_pskip=1 / chroma_qp_offset=-2 / threads=3 / sliced_threads=0 / nr=0 / decimate=1 / interlaced=0 / constrained_intra=0 / bframes=3 / b_pyramid=0 / b_adapt=1 / b_bias=0 / direct=1 / weightb=1 / open_gop=0 / weightp=2 / keyint=250 / keyint_min=25 / scenecut=40 / intra_refresh=0 / rc_lookahead=40 / rc=abr / mbtree=1 / bitrate=500 / ratetol=1.0 / qcomp=0.60 / qpmin=10 / qpmax=51 / qpstep=4 / ip_ratio=1.41 / aq=1:1.00
Дата кодирования : UTC 2016-01-14 14:59:29
Дата пометки : UTC 2016-01-14 14:59:29
Аудио
Идентификатор : 2
Формат : MPEG Audio
Версия формата : Version 1
Профиль формата : Layer 3
Режим : Joint stereo
Расширение режима : MS Stereo
Идентификатор кодека : 6B
Продолжительность : 41 м.
Вид битрейта : Постоянный
Битрейт : 128 Кбит/сек
Каналы : 2 канала
Частота : 48,0 КГц
Метод сжатия : С потерями
Размер потока : 38,1 Мбайт (20%)
Дата кодирования : UTC 2016-01-14 14:59:29
Дата пометки : UTC 2016-01-14 14:59:29
Download
Чтобы скачать .torrent файл необходима регистрация
Сайт не распространяет и не хранит электронные версии произведений, а лишь предоставляет доступ к создаваемому пользователями каталогу ссылок на торрент-файлы, которые содержат только списки хеш-сумм
[Профиль]  [ЛС] 

dubno1977

Стаж: 8 лет

Сообщений: 21


dubno1977 · 08-Июн-16 16:13 (спустя 2 дня 8 часов)

[Цитировать] 

может по мсс что то есть? планируеш ли еще что то выкладывать?
[Профиль]  [ЛС] 

tеko

Moderator

Стаж: 8 лет 10 месяцев

Сообщений: 15703

tеko · 11-Июн-16 06:09 (спустя 2 дня 13 часов)

[Цитировать] 

вы уверены, что вам сюда?
может что-нибудь вроде этого раздела?
http://maintracker.org/forum/viewforum.php?f=1287
[Профиль]  [ЛС] 

intellect

Стаж: 12 лет 11 месяцев

Сообщений: 39436


intellect · 11-Июн-16 10:49 (спустя 4 часа, ред. 11-Июн-16 10:49)

[Цитировать] 

tеko
там записи турниров и шоу, а у меня обучающие курсы. Ранее подобные курсы выкладывали в этом разделе.
[Профиль]  [ЛС] 

tеko

Moderator

Стаж: 8 лет 10 месяцев

Сообщений: 15703

tеko · 11-Июн-16 10:53 (спустя 3 мин.)

[Цитировать] 

ну вы поинтересуйтесь у тамошних модеров, точно ли это не их контент.
[Профиль]  [ЛС] 

DGOBLEK

Стаж: 8 лет 1 месяц

Сообщений: 38


DGOBLEK · 12-Июн-16 13:19 (спустя 1 день 2 часа, ред. 12-Июн-16 13:19)

[Цитировать] 

Браво! Великолепная раздача - на рутрекера из относительно новых курсов по покеру почти ничего нет. Будет ли продолжение? Планируеш ли что то еще в таком же духе выложить?
[Профиль]  [ЛС] 

Neiro25

Стаж: 8 лет 4 месяца

Сообщений: 3


Neiro25 · 18-Июн-16 23:21 (спустя 6 дней)

[Цитировать] 

Ребята, дайте скачать. Зайдите кто- нибудь.
[Профиль]  [ЛС] 

twentytwo1992

Стаж: 6 лет 11 месяцев

Сообщений: 34


twentytwo1992 · 22-Июн-16 10:51 (спустя 3 дня)

[Цитировать] 

Ребята а у кого нибудь есть Плено хад. А то этот не подходит для ПТ4(
[Профиль]  [ЛС] 
 
Ответить
Loading...
Error