Адрес РуТрекера для пользователей РФ - MainTracker.org

Расскажи друзьям:  

Охотники за головами / Серии: 1-8 из 8 (Иван Шурховецкий) [2014, детектив, драма, HDTV (1080i)]

Страницы:  1

Ответить
Автор
Сообщение

Gahan Dave

Top Seed 06* 1280r

Стаж: 9 лет 6 месяцев

Сообщений: 3557

Gahan Dave · 15-Апр-16 09:45 (1 год 9 месяцев назад, ред. 15-Апр-16 21:09)

Охотники за головами

Год выпуска: 2014
Производство: "«ВВП Альянс», Кинокомпания "Марс Медиа Энтертейнмент""
Жанр: детектив, драма
Продолжительность: 00:47:00
Субтитры: нет
Режиссёр: Иван Шурховецкий
В ролях:
Елизавета Боярская, Филипп Янковский, Константин Шелестун, Денис Синявский, Виталий Коваленко, Артур Ваха, Григорий Чабан, Иван Мудров,
Борис Хвошнянский, Никита Яковлев, Петар Зекавица, Алексей Барабаш, Полина Филоненко, Борис Зверев, Артем Бордовский, Дмитрий Гирев, Яков Шамшин,
Антон Кузнецов, Нодар Джанелидзе, Арчибальд Арчибальдович
Описание:
Тимур и Рита — «охотники за головами». Рита ищет уникальных специалистов, Тимур — опасных преступников. Однажды их пути пересекутся: они одновременно выйдут на след гениального российского химика. Его изобретение — лекарство от рака, наркомафия планирует использовать как наркотик. Героям предстоит сделать непростой моральный выбор и оказаться по одну сторону баррикад.
Все раздачи сериала
Возраст: 16+
Качество: HDTV (1080i)
Формат: TS
Видео кодек: AVC
Аудио кодек: MP2

Видео: AVC, 1920 х 1080 (16:9), 25,000 кадр/сек, 7 365 Кбит/сек, 0.142 bit/pixel
Аудио: MP2, 48000 Hz, 256 Kbps, 2 канала

MediaInfo
General
ID : 1 (0x1)
Complete name : D:\Раздачи\Охотники за головами (1-8 серии из 8) HDTV (1080i)\Ohotniki.za.golovami.(02.seriya.iz.08).2014.HDTV.(1080i).ts
Format : MPEG-TS
File size : 2.58 GiB
Duration : 45mn 59s
Overall bit rate mode : Variable
Overall bit rate : 8 020 Kbps
Video
ID : 256 (0x100)
Menu ID : 1 (0x1)
Format : AVC
Format/Info : Advanced Video Codec
Format profile : High@L4
Format settings, CABAC : Yes
Format settings, ReFrames : 3 frames
Codec ID : 27
Duration : 45mn 59s
Bit rate : 7 365 Kbps
Width : 1 920 pixels
Height : 1 080 pixels
Display aspect ratio : 16:9
Frame rate : 25.000 fps
Standard : Component
Color space : YUV
Chroma subsampling : 4:2:0
Bit depth : 8 bits
Scan type : Interlaced
Scan type, store method : Separated fields
Scan order : Top Field First
Bits/(Pixel*Frame) : 0.142
Stream size : 2.37 GiB (92%)
Color range : Limited
Color primaries : BT.709
Transfer characteristics : BT.709
Matrix coefficients : BT.709
Audio
ID : 257 (0x101)
Menu ID : 1 (0x1)
Format : MPEG Audio
Format version : Version 1
Format profile : Layer 2
Codec ID : 3
Duration : 45mn 59s
Bit rate mode : Constant
Bit rate : 256 Kbps
Channel(s) : 2 channels
Sampling rate : 48.0 KHz
Compression mode : Lossy
Delay relative to video : -120ms
Stream size : 84.2 MiB (3%)
Language : English

Скриншоты сериала

Раздаю до первых 5-ти скачавших, на раздачи не возвращаюсь...
Download
Чтобы скачать .torrent файл необходима регистрация
Сайт не распространяет и не хранит электронные версии произведений, а лишь предоставляет доступ к создаваемому пользователями каталогу ссылок на торрент-файлы, которые содержат только списки хеш-сумм
[Профиль]  [ЛС] 
 

gadia7

Стаж: 9 лет 4 месяца

Сообщений: 2


gadia7 · 15-Апр-16 18:18 (спустя 8 часов)

[Цитировать] 

Вообще-то описание от "Пропавший без вести"
[Профиль]  [ЛС] 

Сударыня

Moderator gray

Стаж: 10 лет 9 месяцев

Сообщений: 10744

Сударыня · 16-Июл-16 13:54 (спустя 3 месяца)

[Цитировать] 

За восстановление постера благодарим Nat852
[Профиль]  [ЛС] 

hammerkovrov

Стаж: 5 лет 9 месяцев

Сообщений: 3

hammerkovrov · 13-Янв-18 19:17 (спустя 1 год 5 месяцев)

[Цитировать] 

Смотрится на одном дыхании. Сел в 22.00 закончил просмотр в 6.00 утра. Не мог оторваться. Затягивает.
[Профиль]  [ЛС] 
 
Ответить
Loading...
Error