Адрес РуТрекера для пользователей РФ - MainTracker.org

Расскажи друзьям:  

[RUS] (Цыгане) [CD] Ансамбль цыганской музыки Ляли Пахомовой - Поезжай налево-поезжай направо! - 2000, APE (image+.cue), lossless

Страницы:  1

Ответить
Автор
Сообщение

mart64val

Стаж: 7 лет 5 месяцев

Сообщений: 337

mart64val · 20-Ноя-15 12:21 (2 года назад)

Ансамбль цыганской музыки Ляли Пахомовой / Поезжай налево-поезжай направо!
Жанр: Цыгане
Носитель: CD
Страна-производитель диска (релиза): Россия
Год издания: 2000
Издатель (лейбл): ХЗ
Номер по каталогу: ХЗ
Страна исполнителя (группы): Россия
Аудиокодек: APE (*.ape)
Тип рипа: image+.cue
Битрейт аудио: lossless
Продолжительность: 00:52:05
Источник (релизер): mart64val
Наличие сканов в содержимом раздачи: да
Треклист:
01. Малярка
02. Греясь у костра
03. Алешка
04. Лушка
05. Дуй-дуй
06. Раскину карты
07. Палсо
08. Отойди
09. Сарэ патря
10. Медовый, аметистовый
11. Бидо мангэ
12. Эх, друг гитара
13. От зари до зари
14. Не вешай трубку телефона
15. Прощай, мой табор
16. Поезжай налево-поезжай направо!
Лог создания рипа
Exact Audio Copy V1.0 beta 3 from 29. August 2011
Отчёт EAC об извлечении, выполненном 19. ноября 2015, 23:34
Ансамбль цыганской музыки Ляли Пахомовой / Поезжай налево-поезжай направо!
Дисковод: Optiarc DVD RW AD-7280S Adapter: 1 ID: 0
Режим чтения : Достоверность
Использование точного потока : Да
Отключение кэша аудио : Да
Использование указателей C2 : Нет
Коррекция смещения при чтении : 48
Способность читать области Lead-in и Lead-out : Нет
Заполнение пропущенных сэмплов тишиной : Да
Удаление блоков с тишиной в начале и конце : Нет
При вычислениях CRC использовались нулевые сэмплы : Да
Интерфейс : Встроенный Win32-интерфейс для Win NT/2000
Выходной формат : Внутренние WAV-операции
Формат сэмплов : 44.100 Гц; 16 бит; стерео
TOC извлечённого CD
Трек | Старт | Длительность | Начальный сектор | Конечный сектор
---------------------------------------------------------------------
1 | 0:00.00 | 3:05.70 | 0 | 13944
2 | 3:05.70 | 3:11.30 | 13945 | 28299
3 | 6:17.25 | 3:17.03 | 28300 | 43077
4 | 9:34.28 | 3:45.18 | 43078 | 59970
5 | 13:19.46 | 2:21.40 | 59971 | 70585
6 | 15:41.11 | 2:29.50 | 70586 | 81810
7 | 18:10.61 | 3:47.15 | 81811 | 98850
8 | 21:58.01 | 2:39.04 | 98851 | 110779
9 | 24:37.05 | 2:23.43 | 110780 | 121547
10 | 27:00.48 | 4:08.26 | 121548 | 140173
11 | 31:08.74 | 3:03.57 | 140174 | 153955
12 | 34:12.56 | 2:46.25 | 153956 | 166430
13 | 36:59.06 | 3:01.65 | 166431 | 180070
14 | 40:00.71 | 5:29.29 | 180071 | 204774
15 | 45:30.25 | 2:57.10 | 204775 | 218059
16 | 48:27.35 | 3:37.21 | 218060 | 234355
Характеристики диапазона извлечения и сообщения об ошибках
Выбранный диапазон
Имя файла C:\Users\User\Desktop\111\Ансамбль цыганской музыки Ляли Пахомовой - Поезжай налево-поезжай направо!.wav
Пиковый уровень 96.6 %
Скорость извлечения 3.0 X
Качество диапазона 100.0 %
CRC теста 53711BC8
CRC копии 53711BC8
Копирование... OK
Ошибок не произошло
AccurateRip: сводка
Трек 1 отсутствует в базе данных
Трек 2 отсутствует в базе данных
Трек 3 отсутствует в базе данных
Трек 4 отсутствует в базе данных
Трек 5 отсутствует в базе данных
Трек 6 отсутствует в базе данных
Трек 7 отсутствует в базе данных
Трек 8 отсутствует в базе данных
Трек 9 отсутствует в базе данных
Трек 10 отсутствует в базе данных
Трек 11 отсутствует в базе данных
Трек 12 отсутствует в базе данных
Трек 13 отсутствует в базе данных
Трек 14 отсутствует в базе данных
Трек 15 отсутствует в базе данных
Трек 16 отсутствует в базе данных
Ни одного трека нет в базе AccurateRip
Конец отчёта
==== Контрольная сумма отчёта 339A17A09F143309A0D132745970A99378E7825BF33FE480A99ED1A001BF6671 ====
Download
Чтобы скачать .torrent файл необходима регистрация
Сайт не распространяет и не хранит электронные версии произведений, а лишь предоставляет доступ к создаваемому пользователями каталогу ссылок на торрент-файлы, которые содержат только списки хеш-сумм
[Профиль]  [ЛС] 

mart64val

Стаж: 7 лет 5 месяцев

Сообщений: 337

mart64val · 20-Ноя-15 12:35 (спустя 14 мин.)

[Цитировать] 

Приболел, загрустил.....
Потянуло на цыган.
[Профиль]  [ЛС] 

newloader

Стаж: 7 лет 2 месяца

Сообщений: 38

newloader · 16-Авг-17 23:26 (спустя 1 год 8 месяцев)

[Цитировать] 

Цитата:
Потянуло на цыган.
На обложке их не видно . Рыжий ваще ни разу не цыган.
Звук порадовал.
[Профиль]  [ЛС] 
 
Ответить
Loading...
Error