Адрес РуТрекера для пользователей РФ - MainTracker.org

Расскажи друзьям:  

Пластичность мозга /The Brain That Changes Itself [Наука 2.0 07.04.2015] (Майк Ширин /Mike Sheerin) [2015, Документальный, познавательный, SATRip]

Страницы:  1

Ответить
Автор
Сообщение

Chelur

RG Документалисты

Стаж: 9 лет 8 месяцев

Сообщений: 8414

Chelur · 07-Апр-15 14:15 (2 года 8 месяцев назад, ред. 17-Апр-15 16:39)

ПЛАСТИЧНОСТЬ МОЗГА /The Brain That Changes Itself
Год выпуска: 2008
Страна: Канада и Франция
Жанр: Документальный
Продолжительность: 0:54:49
Автор и режиссёр: Майк Ширин /Mike Sheerin
Перевод: Профессиональный, двухголосый
Русские субтитры: нет
Описание: Этот фильм основан на книге Нормана Дойджа "Пластичность мозга", посвященной революционным исследованиям в области человеческого мозга, доказавшим, что головной мозг может изменяться, трансформироваться. Без операций и медикаментозных воздействий мозг проявляет неизвестную до сих пор способность к изменениям. Часть пациентов считалась больной неизлечимыми заболеваниями головного мозга, другие люди не испытывали каких-либо явных проблем, а просто хотели улучшить функционирование своего мозга или замедлить процесс его дегенерации в связи с приближением старости. На протяжении последних четырехсот лет это казалось непостижимым на фоне представлений классической медицины, утверждавшей, что анатомия мозга не подлежит изменению.
Продолжение темы: http://maintracker.org/forum/viewtopic.php?t=4987934
Книга Нормана Дойджа: http://maintracker.org/forum/viewtopic.php?t=4665684
Релиз группы:
Качество: SATRip
Формат: AVI
Видео: 720x400 (1.80:1), 25 fps, XviD ~1857 kbps, 0.26 bit/pixel
Аудио: 48 kHz, MPEG Layer 3, 2 ch, ~128 kbps
MediaInfo:
Общее
Полное имя : D:\Torrents\Plastichnost'_mozga_[rutracker.org].avi
Формат : AVI
Формат/Информация : Audio Video Interleave
Размер файла : 782 Мбайт
Продолжительность : 54 м.
Общий поток : 1995 Кбит/сек
Программа кодирования : VirtualDubMod 1.6.0.0 SURROUND (build 2560/release)
Библиотека кодирования : VirtualDubMod build 2560/release
Видео
Идентификатор : 0
Формат : MPEG-4 Visual
Профиль формата : Advanced Simple@L5
Параметр BVOP формата : 2
Параметр QPel формата : Нет
Параметр GMC формата : Без точки перехода
Параметр матрицы формата : Default (MPEG)
Идентификатор кодека : XVID
Идентификатор кодека/Подсказка : XviD
Продолжительность : 54 м.
Битрейт : 1857 Кбит/сек
Ширина : 720 пикселей
Высота : 400 пикселей
Соотношение сторон : 5:4
Соотношение сторон в оригинале : 16:9
Частота кадров : 25,000 кадров/сек
Цветовое пространство : YUV
Субдискретизация насыщенности : 4:2:0
Битовая глубина : 8 бит
Тип развёртки : Прогрессивная
Метод сжатия : С потерями
Бит/(Пиксели*Кадры) : 0.258
Размер потока : 728 Мбайт (93%)
Библиотека кодирования : XviD 1.2.1 (UTC 2008-12-04)
Аудио
Идентификатор : 1
Формат : MPEG Audio
Версия формата : Version 1
Профиль формата : Layer 3
Режим : Joint stereo
Расширение режима : MS Stereo
Идентификатор кодека : 55
Идентификатор кодека/Подсказка : MP3
Продолжительность : 54 м.
Вид битрейта : Постоянный
Битрейт : 128 Кбит/сек
Каналы : 2 канала
Частота : 48,0 КГц
Метод сжатия : С потерями
Размер потока : 50,2 Мбайт (6%)
Выравнивание : Разделение по промежуткам
Продолжительность промежутка : 40 мс. (1,00 видеокадр)
Время предзагрузки промежутка : 500 мс.
Библиотека кодирования : LAME3.99r
Настройки программы : -m j -V 4 -q 3 -lowpass 17 -b 128
Скриншоты (превью, увеличение по клику):
сэмпл видео:
На раздаче по возможности, ~20 Mb/s. > [Что от меня зависит, сделал. Остальное зависит от Вас, трекера и наших провайдеров.]
Download
Чтобы скачать .torrent файл необходима регистрация
Сайт не распространяет и не хранит электронные версии произведений, а лишь предоставляет доступ к создаваемому пользователями каталогу ссылок на торрент-файлы, которые содержат только списки хеш-сумм
[Профиль]  [ЛС] 

sancher

Стаж: 10 лет 6 месяцев

Сообщений: 401


sancher · 08-Апр-15 12:39 (спустя 22 часа, ред. 08-Апр-15 12:39)

[Цитировать] 

Chelur
Спасибо! Актуально, как раз вчера изучал материалы на эту тему
Рекомендую также посмотреть вот это: http://www.ted.com/talks/michael_merzenich_on_the_elastic_brain
И почитать http://maintracker.org/forum/viewtopic.php?t=4004854
[Профиль]  [ЛС] 

FreakInU

Стаж: 9 лет 11 месяцев

Сообщений: 130

FreakInU · 10-Апр-15 19:53 (спустя 2 дня 7 часов)

[Цитировать] 

Урааааааа! Спасибо большое! Прям ну очень актуально! ^_^ Всех благ!
[Профиль]  [ЛС] 

Mts-by

Стаж: 7 лет 11 месяцев

Сообщений: 13

Mts-by · 16-Апр-15 18:20 (спустя 5 дней)

[Цитировать] 

Спасибо !!! Фильм будет полезен студентам всех медицинских специальностей по теме физиология интегративной деятельности мозга ! ГрГМУ
[Профиль]  [ЛС] 

groms111

Стаж: 6 лет 1 месяц

Сообщений: 8

groms111 · 23-Сен-17 05:42 (спустя 2 года 5 месяцев)

[Цитировать] 

спасибо
[Профиль]  [ЛС] 
 
Ответить
Loading...
Error