Адрес РуТрекера для пользователей РФ - MainTracker.org

Расскажи друзьям:  

Сваты 6 / Сезон: 6 / Серии: 1 - 16 (16) (Андрей Яковлев) [2013, Семейная комедия, DVB]

Страницы:  1

Ответить
Автор
Сообщение

intellect

Стаж: 13 лет 1 месяц

Сообщений: 40289


intellect · 13-Окт-14 20:53 (3 года 2 месяца назад, ред. 13-Окт-14 22:05)

Сваты 6
Год выпуска: 2013
Производство: Украина
Жанр: Семейная комедия
Продолжительность: 00:50:00
Субтитры: отсутствуют
Режиссёр: Андрей Яковлев
В ролях: Фёдор Добронравов, Татьяна Кравченко, Людмила Артемьева, Анна Кошмал, Александр Феклистов, Анна Полищук, Костя Чернокрылюк, Олеся Железняк, Николай Добрынин, Владимир Зельдин, Ольга Аросева, Даниил Белых, Инна Королёва, Эммануил Виторган, Елена Сафонова, Роман Лукьянов, Евгений Капорин, Фёдор Гуринец, Алексей Смолка, Денис Шепотинник, Татьяна Васильева, Мария Кочур, Екатерина Варченко
Описание: В шестом сезоне «Сватов» зрителей снова ждет невероятное количество самых неожиданных приключений полюбившихся героев. Но впервые мы проживем с семьей Будько-Ковалево-Берковичей не только короткие летние каникулы, а целый год. Сваты с внуками успеют и поздравить любимых женщин с 8 марта, и «ухандокаться» на посадочно-поливочной-уборочной, и отправить Евгению учиться в институт, конечно, не забыв при этом разругаться в пух и прах. Поздравить ветеранов с 9 мая, пережить с Митяем все трудности беременности Ларисы. Отметят удачно совпавший с днем Милиции юбилей Ивана. Будько-Ковалево-Берковичи побывают на «Евро-2012», прокатятся на круизном лайнере по Волге, посетят Париж, задержат беглого преступника, спасут урожай для страны, а страну от бюрократии, женят Берковича, побывают в прошлом! И, конечно, встретят Новый Год! Зрители пройдут через семейный тимбилдинг, погрузятся в мистический хоррор, окунутся в мелодраму, испытают на себе все перипетии триллера, проживут производственную драму… И все это приправлено неповторимым сватовским юмором!
Доп. информация: Отсутствуют
Все раздачи сериала: http://maintracker.org/forum/tracker.php?f=9&nm=%F1%E2%E0%F2%FB+6
Сэмпл: https://www.sendspace.com/file/hi0vae
Качество: DVB
Формат: MPEG-PS
Видео кодек: MPEG Video
Аудио кодек: MPEG Audio
Видео: MPEG Video; 4636 Кбит/сек; 720х576 (4:3); 25,000 кадров/сек; PAL
Аудио: MPEG Audio; 256 Кбит/сек; 2 канала; 48,0 КГц
MI
Общее
Полное имя : E:\закачки\Сваты 6 [rutracker.org]\3.mpg
Формат : MPEG-PS
Размер файла : 1,70 Гбайт
Продолжительность : 48 м.
Режим общего битрейта : Переменный
Общий поток : 4969 Кбит/сек
Библиотека кодирования : (c) 1998-2010 Womble Multimedia, Inc. / MPEG Video Wizard DVD 5.0.0.114 (01/2010) / Nov 13 2010
Видео
Идентификатор : 224 (0xE0)
Формат : MPEG Video
Версия формата : Version 2
Профиль формата : Main@Main
Параметр BVOP формата : Да
Параметр матрицы формата : Выборочная
Параметр GOP формата : Variable
Продолжительность : 48 м.
Вид битрейта : Переменный
Битрейт : 4636 Кбит/сек
Ширина : 720 пикселей
Высота : 576 пикселей
Соотношение сторон : 4:3
Частота кадров : 25,000 кадров/сек
Стандарт вещания : PAL
Цветовое пространство : YUV
Субдискретизация насыщенности : 4:2:0
Битовая глубина : 8 бит
Тип развёртки : Чересстрочная
Порядок развёртки : Верхнее поле первое
Метод сжатия : С потерями
Бит/(Пиксели*Кадры) : 0.447
Временной код первого кадра : 00:00:00:00
Оригинал временного кода : Group of pictures header
Размер потока : 1,58 Гбайт (93%)
Закодированный размер потока оригинала : (c) 1998-2010 Womble Multimedia, Inc. / MPEG Video Wizard DVD 5.0.0.114 (01/2010) / Nov 13 2010
Библиотека кодирования : (c) 1998-2010 Womble Multimedia, Inc. / MPEG Video Wizard DVD 5.0.0.114 (01/2010) / Nov 13 2010
Аудио
Идентификатор : 192 (0xC0)
Формат : MPEG Audio
Версия формата : Version 1
Профиль формата : Layer 2
Продолжительность : 48 м.
Вид битрейта : Постоянный
Битрейт : 256 Кбит/сек
Каналы : 2 канала
Частота : 48,0 КГц
Метод сжатия : С потерями
Размер потока : 89,6 Мбайт (5%)
Меню
Скриншоты
Download
Чтобы скачать .torrent файл необходима регистрация
Сайт не распространяет и не хранит электронные версии произведений, а лишь предоставляет доступ к создаваемому пользователями каталогу ссылок на торрент-файлы, которые содержат только списки хеш-сумм
[Профиль]  [ЛС] 

laser_video

Стаж: 8 лет 11 месяцев

Сообщений: 116

laser_video · 21-Дек-14 20:15 (спустя 2 месяца 7 дней)

[Цитировать] 

7й сезон не выходил еще?
[Профиль]  [ЛС] 

Стаc Кaрпoв

Стаж: 6 лет 9 месяцев

Сообщений: 41

Стаc Кaрпoв · 21-Дек-14 20:39 (спустя 24 мин.)

[Цитировать] 

laser_video писал(а):
662604947й сезон не выходил еще?
Нет пока... а должен?
[Профиль]  [ЛС] 
 
Ответить
Loading...
Error