Прощание с детством / Only the Young (Джейсон Типпет / Jason Tippet, Элизабет Мимс / Elizabeth Mims) [2012, США, документальный, романтическая комедия, DVB] DVO (24ДОК)

Страницы:  1

Ответить
Автор
Сообщение

ralf124c41+

Top Seed 07* 2560r

Стаж: 7 лет 2 месяца

Сообщений: 9242

17-Май-14 10:39 (2 года 10 месяцев назад)

[Цитировать] 

Прощание с детством
Only the Young- Страна: США
Жанр: документальный, романтическая комедия
Год выпуска: 2012
Продолжительность: 01:08:51Перевод: Профессиональный (двухголосый закадровый) 24ДОК
Cубтитры: нет
Режиссер: Джейсон Типпет / Jason Tippet, Элизабет Мимс / Elizabeth Mims
В ролях: Гаррисон Саенз / Garrison Saenz, Кевин Конвей / Kevin Conway, Скай Элмор / Skye Elmore
Описание: Гаррисон и Кевин живут в маленьком городке, где совершенно нечего делать. Они создают свой собственный мир, позволяющий уйти от унылой реальности, часами катаясь по пустынным окрестностям на скейтбордах. Скай – сильная, красивая, не по годам мудрая девушка. Она пытается помешать банку отобрать дом, в котором выросла. Для трех подростков это лето приключений, первой любви и расставаний. Герои взрослеют, и знакомый им мир меняется навсегда. (анонс канала "24ДОК")
Доп. информация: 24ДОК DVB-S
Награды: включен в TOP5 лучших документальных фильмов National Board of Review (USA) 2012; почетный приз Philadelphia Film Festival 2012 за лучший документальный фильм; номинация Independent Spirit Awards 2013 в категории "Лучше, чем художественный фильм".
http://www.imdb.com/title/tt2085888/

Сэмпл: http://multi-up.com/974248
Качество видео: DVB
Формат видео: MKV
Видео: MPEG Video 2, 720x576@768x576 (4:3), 25 fps, ~1850 kbps avg, 0.178 bit/pixel
Аудио: 48 kHz, MPEG Audio 2, 2 ch, ~192.00 kbps avg
MediaInfo
Общее
Уникальный идентификатор : 241925096258925689039660129855023900160 (0xB6011426E35055DCBD3D649044306600)
Полное имя : H:\My Torrents\[apreder]Only_the_Young(2012)DVB.mkv
Формат : Matroska
Версия формата : Version 2
Размер файла : 1,00 Гбайт
Продолжительность : 1 ч. 8 м.
Режим общего битрейта : Переменный
Общий поток : 2083 Кбит/сек
Дата кодирования : UTC 2014-05-17 07:00:52
Программа кодирования : mkvmerge v6.9.1 ('Blue Panther') 32bit built on Apr 18 2014 18:15:44
Библиотека кодирования : libebml v1.3.0 + libmatroska v1.4.1
Видео
Идентификатор : 1
Формат : MPEG Video
Версия формата : Version 2
Профиль формата : Main@Main
Параметр BVOP формата : Нет
Параметр матрицы формата : Выборочная
Идентификатор кодека : V_MPEG2
Идентификатор кодека/Информация : MPEG 1 or 2 Video
Продолжительность : 1 ч. 8 м.
Вид битрейта : Переменный
Битрейт : 1850 Кбит/сек
Максимальный битрейт : 5210 Кбит/сек
Ширина : 720 пикселей
Высота : 576 пикселей
Соотношение сторон : 4:3
Режим частоты кадров : Постоянный
Частота кадров : 25,000 кадров/сек
Стандарт вещания : PAL
Цветовое пространство : YUV
Субдискретизация насыщенности : 4:2:0
Битовая глубина : 8 бит
Тип развёртки : Чересстрочная
Порядок развёртки : Верхнее поле первое
Метод сжатия : С потерями
Бит/(Пиксели*Кадры) : 0.178
Временной код первого кадра : 00:00:00:00
Оригинал временного кода : Group of pictures header
Размер потока : 911 Мбайт (89%)
Default : Да
Forced : Нет
Аудио
Идентификатор : 2
Формат : MPEG Audio
Версия формата : Version 1
Профиль формата : Layer 2
Идентификатор кодека : A_MPEG/L2
Идентификатор кодека/Подсказка : MP2
Продолжительность : 1 ч. 8 м.
Вид битрейта : Постоянный
Битрейт : 192 Кбит/сек
Каналы : 2 канала
Частота : 48,0 КГц
Метод сжатия : С потерями
Размер потока : 94,6 Мбайт (9%)
Язык : Russian
Default : Да
Forced : Нет
Скриншот c названием фильма
Скриншоты

Резервные скриншоты
-1'366/1'346√[-4]
Download
Чтобы скачать .torrent файл необходима регистрация
Сайт не распространяет и не хранит электронные версии произведений, а лишь предоставляет доступ к создаваемому пользователями каталогу ссылок на торрент-файлы, которые содержат только списки хеш-сумм
[Профиль]  [ЛС] 

AOsterman

Стаж: 8 лет 4 месяца

Сообщений: 115


12-Июн-15 20:57 (спустя 1 год)

[Цитировать] 

Классный фильм! Отлично снят, со своей атмосферой, с чувствами, все здорово.
[Профиль]  [ЛС] 

hellion8484

Стаж: 7 лет 1 месяц

Сообщений: 83


11-Янв-17 22:24 (спустя 1 год 6 месяцев)

[Цитировать] 

А неплохой такой фильм. По крайней мере более реалистичный чем всякие там "американские пироги"
[Профиль]  [ЛС] 
 
Ответить
Loading...
Error