Адрес РуТрекера для пользователей РФ - MainTracker.org

Расскажи друзьям:  

Сваты 4 / Серии: 1-16 из 16 (Андрей Яковлев) [2010, Комедия, HDTV] (1080i)

Страницы:  1

Ответить
Автор
Сообщение

chuvakov77

Стаж: 8 лет 3 месяца

Сообщений: 57

chuvakov77 · 22-Дек-13 03:22 (3 года 11 месяцев назад, ред. 22-Дек-13 20:44)

Сваты 4
Год выпуска: 2010
Производство: «Студия Квартал-95»
Жанр: Комедия
Продолжительность:16 х ~ 00:48:00

Режиссёр: Андрей Яковлев
В ролях: Фёдор Добронравов, Татьяна Кравченко, Анатолий Васильев, Людмила Артемьева, София Стеценко, Николай Добрынин, Олеся Железняк, Владимир Зельдин, Ольга Аросева, Александр Феклистов, Олег Комаров (II), Руслана Писанка, Инна Королёва, Даниил Белых, Филипп Киркоров, Олеся Жураковская, Валерий Гурьев (II), Фёдор Гапоненко, Анна Саливанчук, Сергей Серов, Ирина Аугшкап (Серова), Ольга Котляренко, Дмитрий Суржиков, Сергей Бойко, Сергей Кучеренко, Софья Джунь, Андрей Дзубан, Анатолий Семёнов (V), Светлана Дорохина, Анастасия (Ася) Бакланова, Мария Кондратенко, Алексей Красноженюк, Егор Крутоголов, Фёдор Ольховский, Георгий Поволоцкий, Инна Хотеенкова

Описание: В четвертой части "Сватов" телезрители смогут наблюдать за курортными приключениями полюбившихся героев. На этот раз бабушки и дедушки отправятся в Крым. Но они туда поедут не столько отдыхать, сколько опекать свою любимую внучку Женечку, которую родители отправили в детский лагерь "Артек". Сваты так и не научились жить без внучки, но они и не научились жить друг с другом! В "Сватах-4" телезрителей ждет еще больше юмора, еще больше забавных ситуаций и знакомство с новыми героями.
Все раздачи сериала
Сэмпл


Качество: HDTV (1080i)
Формат: TS
Видео кодек: H.264
Аудио кодек: MP2
Видео: MPEG-4 AVC, ~ 8000 Кбит/с, 1920x1080, 16:9, 25,000 fps, 0.148 bit/pixel
Аудио: MP2, 2 ch, 192 Кбит/с, 48 kHz
MI
Код:
Общее
Идентификатор                            : 1 (0x1)
Полное имя                               : D:\Downloads\Svaty.S04.1080i.HDTV.Rus.HDCLUB\Svaty.S04E01.1080i.HDTV.Rus.HDCLUB.ts
Формат                                   : MPEG-TS
Размер файла                             : 2,92 Гбайт
Продолжительность                        : 50 м.
Общий поток                              : 8248 Кбит/сек
Видео
Идентификатор                            : 201 (0xC9)
Идентификатор меню                       : 1 (0x1)
Формат                                   : AVC
Формат/Информация                        : Advanced Video Codec
Профиль формата                          : High@L4.0
Параметр CABAC формата                   : Да
Параметр ReFrames формата                : 3 кадра
Идентификатор кодека                     : 27
Продолжительность                        : 50 м.
Битрейт                                  : 7647 Кбит/сек
Ширина                                   : 1920 пикселей
Высота                                   : 1080 пикселей
Соотношение сторон                       : 16:9
Частота кадров                           : 25,000 кадров/сек
Цветовое пространство                    : YUV
Субдискретизация насыщенности            : 4:2:0
Битовая глубина                          : 8 бит
Тип развёртки                            : Чересстрочная
Порядок развёртки                        : Верхнее поле первое
Бит/(Пиксели*Кадры)                      : 0.148
Размер потока                            : 2,71 Гбайт (93%)
Аудио
Идентификатор                            : 210 (0xD2)
Идентификатор меню                       : 1 (0x1)
Формат                                   : MPEG Audio
Версия формата                           : Version 1
Профиль формата                          : Layer 2
Идентификатор кодека                     : 3
Продолжительность                        : 50 м.
Вид битрейта                             : Постоянный
Битрейт                                  : 192 Кбит/сек
Каналы                                   : 2 канала
Частота                                  : 48,0 КГц
Метод сжатия                             : С потерями
Размер потока                            : 69,6 Мбайт (2%)
Язык                                     : Russian
Скриншоты
Download
Чтобы скачать .torrent файл необходима регистрация
Сайт не распространяет и не хранит электронные версии произведений, а лишь предоставляет доступ к создаваемому пользователями каталогу ссылок на торрент-файлы, которые содержат только списки хеш-сумм
[Профиль]  [ЛС] 

Ru.Corsar

Стаж: 4 года 11 месяцев

Сообщений: 63

Ru.Corsar · 22-Дек-13 15:14 (спустя 11 часов)

[Цитировать] 

Спасибо,ещё бы 6-й сезон в таком же качестве.
[Профиль]  [ЛС] 

Гераськин

Стаж: 2 года 2 месяца

Сообщений: 2


Гераськин · 16-Окт-15 10:36 (спустя 1 год 9 месяцев)

[Цитировать] 

При записиси на ДВД - звук отдельно, картинка отдельно. Две болванки в мусор!
[Профиль]  [ЛС] 
 
Ответить
Loading...
Error