Адрес РуТрекера для пользователей РФ - MainTracker.org

Расскажи друзьям:  

iZReaL - Молодость [2013, Hip-Hop, Rap, Master]

Страницы:  1

Ответить
Автор
Сообщение

Most Hated

Top Seed 01* 40r

Стаж: 6 лет 7 месяцев

Сообщений: 202

Most Hated · 26-Ноя-13 14:59 (4 года 2 месяца назад, ред. 24-Фев-15 13:14)

iZReaL - Молодость
Жанр: Hip-Hop, Rap
Продолжительность: 00:05:12
Страна: Россия (г. Санкт-Петербург)
Год выпуска: 2013
Описание: Студия ""ONEDAR FILMS" представляет новый клип русско-язычного коллектива из Израиля! Вас ждут 5 новелл, в которых ВЫ, возможно, найдете и себя.
Музыка: FDVadim
Источник: представлено "ONEDAR FILMS"
Режиссер: Сергей Легкий
Сценарий: Сергей Легкий, Михаил Кутаков, Артем Атом
Операторы: Артем Атом, Александр Прилуцкий, Сергей Легкий
Техники: Михаил Кутаков, Родион Дынкин, Вячеслав Приветов
Монтаж и пост-продакшн: студия "ONEDAR FILMS"
© СОЮЗ MadStyle
Качество: Master
Контейнер: MP4
Видео кодек: H.264
Аудио кодек: AAC
Видео: AVC, 1920x1080, 14.6 Mbps, 23.976 fps
Аудио: AAC, 320 Kbps, 44.1 KHz, 2 channels

Отчёт MediaInfo
General
Complete name : D:\Клипы\iZReaL - Молодость.mp4
Format : MPEG-4
Format profile : Base Media / Version 2
Codec ID : mp42
File size : 554 MiB
Duration : 5mn 12s
Overall bit rate mode : Variable
Overall bit rate : 14.9 Mbps
Encoded date : UTC 2013-05-13 09:52:22
Tagged date : UTC 2013-05-13 09:52:22
Video
ID : 2
Format : AVC
Format/Info : Advanced Video Codec
Format profile : High@L4.0
Format settings, CABAC : Yes
Format settings, ReFrames : 2 frames
Muxing mode : Container profile=Main@4.0
Codec ID : avc1
Codec ID/Info : Advanced Video Coding
Duration : 5mn 12s
Bit rate mode : Variable
Bit rate : 14.6 Mbps
Maximum bit rate : 16.0 Mbps
Width : 1 920 pixels
Height : 1 080 pixels
Display aspect ratio : 16:9
Frame rate mode : Constant
Frame rate : 23.976 fps
Color space : YUV
Chroma subsampling : 4:2:0
Bit depth : 8 bits
Scan type : Progressive
Bits/(Pixel*Frame) : 0.293
Stream size : 542 MiB (98%)
Language : English
Encoded date : UTC 2013-05-13 09:52:22
Tagged date : UTC 2013-05-13 09:52:22
Audio
ID : 1
Format : AAC
Format/Info : Advanced Audio Codec
Format profile : LC
Codec ID : 40
Duration : 5mn 12s
Bit rate mode : Constant
Bit rate : 320 Kbps
Channel(s) : 2 channels
Channel positions : Front: L R
Sampling rate : 44.1 KHz
Compression mode : Lossy
Delay relative to video : 42ms
Stream size : 11.9 MiB (2%)
Language : English
Encoded date : UTC 2013-05-13 09:52:22
Tagged date : UTC 2013-05-13 09:52:22
Скриншоты
Download
Чтобы скачать .torrent файл необходима регистрация
Сайт не распространяет и не хранит электронные версии произведений, а лишь предоставляет доступ к создаваемому пользователями каталогу ссылок на торрент-файлы, которые содержат только списки хеш-сумм
[Профиль]  [ЛС] 
 
 
Ответить
Loading...
Error