Адрес РуТрекера для пользователей РФ - MainTracker.org

Расскажи друзьям:  

Спасатель / The Guardian (Эндрю Дэвис / Andrew Davis) [2006, США, Боевик, драма, приключения, BDRip] Dub

Страницы:  1

Ответить
Автор
Сообщение

dalemake

RG All Films

Стаж: 8 лет 1 месяц

Сообщений: 2637

dalemake · 18-Авг-13 18:14 (4 года 4 месяца назад)

Спасатель / The Guardian
«Жертвуй всем, когда нужно спасти людей»

Год выпуска: 2006
Выпущено: США / Touchstone Pictures, Beacon Pictures
Жанр: боевик, драма, приключения
Продолжительность: 02:19:04
Перевод: Профессиональный (полное дублирование)
Субтитры: нет
Режиссер:
Эндрю Дэвис / Andrew Davis
В ролях:
Кевин Костнер (Ben Randall), Эштон Кутчер (Jake Fischer), Нил МакДонаф (Jack Skinner), Мелисса Сейджмиллер (Emily Thomas), Клэнси Браун (Capt. William Hadley), Брайан Джерати (Billy Hodge), Села Уорд (Helen Randall), Омари Хардвик (Carl Billings), Майкл Рэди (Nick Zingaro), Алекс Дэниелс (Wild Bill)
Описание:
Бен Рэнделл, легендарный пловец-спасатель когда-то в ужасной катастрофе потерял всю свою команду. Чтобы найти свое место в жизни, и забыть о том страшном событии, он решает пойти в Береговую охрану, где в его обязанности входит тренировка молодых спасателей. Здесь, он сталкивается с молодым и талантливым пловцом «с характером» Джейком Фишером. В процессе обучения Бен помогает Джейку скомбинировать его характер с его способностями. В конце обучения они вдвоем отправляются к Аляске, в Берингово море, где Джейку придется пройти самое важное испытание…
Релиз группы | IMDB | КиноПоиск |
Качество: BDRip [BDRemux] из сети
Формат: AVI
Видео: 688x368 (1.87:1), 23.976 fps, XviD build 73 ~1300 kbps avg, 0.21 bit/pixel
Аудио: 48 kHz, AC3 Dolby Digital, 2/0 (L,R) ch, ~192.00 kbps avg

Скриншоты
MediaInfo
Код:
General
Complete name                            : D:\Spasatel’_2006_BDRip_by_Dalemake.avi
Format                                   : AVI
Format/Info                              : Audio Video Interleave
File size                                : 1.46 GiB
Duration                                 : 2h 19mn
Overall bit rate                         : 1 502 Kbps
Writing application                      : VirtualDubMod 1.5.10.3 | www.virtualdub-fr.org || (build 2550/release)
Writing library                          : VirtualDubMod build 2550/release
Video
ID                                       : 0
Format                                   : MPEG-4 Visual
Format profile                           : Advanced Simple@L5
Format settings, BVOP                    : 1
Format settings, QPel                    : No
Format settings, GMC                     : No warppoints
Format settings, Matrix                  : Custom
Codec ID                                 : XVID
Codec ID/Hint                            : XviD
Duration                                 : 2h 19mn
Bit rate                                 : 1 300 Kbps
Width                                    : 688 pixels
Height                                   : 368 pixels
Display aspect ratio                     : 1.85:1
Frame rate                               : 23.976 fps
Color space                              : YUV
Chroma subsampling                       : 4:2:0
Bit depth                                : 8 bits
Scan type                                : Progressive
Compression mode                         : Lossy
Bits/(Pixel*Frame)                       : 0.214
Stream size                              : 1.26 GiB (87%)
Writing library                          : XviD 73
Audio
ID                                       : 1
Format                                   : AC-3
Format/Info                              : Audio Coding 3
Mode extension                           : CM (complete main)
Format settings, Endianness              : Big
Codec ID                                 : 2000
Duration                                 : 2h 19mn
Bit rate mode                            : Constant
Bit rate                                 : 192 Kbps
Channel(s)                               : 2 channels
Channel positions                        : Front: L R
Sampling rate                            : 48.0 KHz
Bit depth                                : 16 bits
Compression mode                         : Lossy
Stream size                              : 191 MiB (13%)
Alignment                                : Split accross interleaves
Interleave, duration                     : 42 ms (1.00 video frame)
Interleave, preload duration             : 500 ms

Download
Чтобы скачать .torrent файл необходима регистрация
Сайт не распространяет и не хранит электронные версии произведений, а лишь предоставляет доступ к создаваемому пользователями каталогу ссылок на торрент-файлы, которые содержат только списки хеш-сумм
[Профиль]  [ЛС] 
 

Mr_Davidson

Стаж: 7 лет 7 месяцев

Сообщений: 71

Mr_Davidson · 07-Окт-13 13:39 (спустя 1 месяц 19 дней)

[Цитировать] 

Отличное кино. Кинул в планшет, побалую себя в самолёте!
[Профиль]  [ЛС] 

ORELIK_23

Стаж: 7 лет 2 месяца

Сообщений: 20


ORELIK_23 · 08-Ноя-13 14:39 (спустя 1 месяц 1 день)

[Цитировать] 

Фильм вообще отличный! И почему я посмотрел его только сейчас?
[Профиль]  [ЛС] 

aIgor

Стаж: 11 лет 8 месяцев

Сообщений: 11


aIgor · 03-Дек-13 11:46 (спустя 24 дня)

[Цитировать] 

На редкость жороший фильм. Уже очень давно не смотрел ничего подобного из американского репертуара
[Профиль]  [ЛС] 

play-tlt

Стаж: 6 лет 4 месяца

Сообщений: 2


play-tlt · 21-Дек-13 14:06 (спустя 18 дней)

[Цитировать] 

Побалую себя на пути к Марсу
[Профиль]  [ЛС] 

don4a12

Стаж: 6 лет 2 месяца

Сообщений: 840


don4a12 · 19-Апр-14 13:05 (спустя 3 месяца 28 дней)

[Цитировать] 

Советую всем посмотреть этот фильм. Это одна из самых интересных и напряженных драм о борьбе человека и стихии.
[Профиль]  [ЛС] 

Zhakkkkke

Стаж: 5 лет 11 месяцев

Сообщений: 268

Zhakkkkke · 05-Июн-14 09:03 (спустя 1 месяц 15 дней)

[Цитировать] 

don4a12 писал(а):
63654868Советую всем посмотреть этот фильм. Это одна из самых интересных и напряженных драм о борьбе человека и стихии.
эт верно.., замечательные актерский состав.., шикарный фильм.., автору и раздающим - респект!!!
[Профиль]  [ЛС] 

Lexa67rus

Top Seed 01* 40r

Стаж: 5 лет 2 месяца

Сообщений: 286

Lexa67rus · 21-Авг-14 22:28 (спустя 2 месяца 16 дней, ред. 21-Авг-14 22:28)

[Цитировать] 

Фильм Отличный 9/10. Концовка печальная !!!!!!!!!
[Профиль]  [ЛС] 

goodday77

Стаж: 6 лет 10 месяцев

Сообщений: 20


goodday77 · 30-Авг-14 02:11 (спустя 8 дней)

[Цитировать] 

Хорошее, эмоциональное и нескучное кино. По качеству видео, аудио и перевода претензий нет.
[Профиль]  [ЛС] 

Sayuriya

Стаж: 2 года 9 месяцев

Сообщений: 3


Sayuriya · 26-Мар-15 21:33 (спустя 6 месяцев)

[Цитировать] 

Lexa67rus писал(а):
64898323Фильм Отличный 9/10. Концовка печальная !!!!!!!!!
Типун тебе на язык
[Профиль]  [ЛС] 

Vishenka1997

Стаж: 5 лет 7 месяцев

Сообщений: 49

Vishenka1997 · 29-Июн-15 22:28 (спустя 3 месяца 3 дня)

[Цитировать] 

Я бы не сказала, что совсем уже печальная концовка, но стоит посмотреть очень понравился)
[Профиль]  [ЛС] 

Kraken13

Стаж: 9 лет 2 месяца

Сообщений: 200


Kraken13 · 17-Сен-16 12:54 (спустя 1 год 2 месяца)

[Цитировать] 

Фильм идет аж 139 минут. Разрешение маленькое, битрейт маленький. В чем соль? Уложиться в 1.45?
[Профиль]  [ЛС] 
 
Ответить
Loading...
Error