Адрес РуТрекера для пользователей РФ - MainTracker.org

Расскажи друзьям:  

Тайный код жизни (3 Серии) / The Code [2011, Документальный, HDTVRip, 720p]

Страницы:  1

Ответить
Автор
Сообщение

БэстЛайв

Стаж: 7 лет 4 месяца

Сообщений: 470

БэстЛайв · 20-Ноя-12 15:05 (4 года 11 месяцев назад)

Тайный код жизни (3 Серии) / The Code
Год выпуска: 2011
Страна: Великобритания
Жанр: Документальный
Продолжительность: 3 x ~59 мин
Перевод: Профессиональный (одноголосый)
Описание: Математик, профессор Маркус дю Сатель рассказывает в этом фильме о том, как законы математики пронизывают своей строгой красотой все формы нашего мира.
Доп информация:
В релизе присутствуют не переведенные моменты (примерно около минуты на 3-ю серию.) Т.к русская версия этого фильма урезана. Основной (русский) звук взят с канала Наука 2.0 и дополнен звуком от Discovery Channel.
Видео с канала BBCHD от: Hannibal Работа со звуком: "BL" (БэстЛайв)
Качество: HDTVRip
Формат: MKV
Видео кодек: H.264
Аудио кодек: AC3
Видео: H.264; 1280x720p (16:9); 25.000 fps; 3 300 kbps
Аудио 1: RUS AC3; 48000 Hz; 2 ch; 192 kbps
Аудио 2: ENG AC3; 48000 Hz; 2 ch; 192 kbps
Список серий:
1. Numbers - Числа
2. Shapes - Фигуры
3. Prediction - Прогноз
MediaInfo
The.Code.s01e01.Numbers.HDTV.720p.RUS.ENG.x264.mkv
Format : Matroska
File size : 1.51 GiB
Duration : 59mn 14s
Overall bit rate : 3 646 Kbps
Encoded date : UTC 2012-11-20 09:54:11
Writing application : mkvmerge v4.9.1 ('Ich will') сборка от Jul 11 2011 23:53:15
Writing library : libebml v1.2.1 + libmatroska v1.1.1
Video
ID : 1
Format : AVC
Format/Info : Advanced Video Codec
Format profile : High@L4.1
Format settings, CABAC : No
Format settings, ReFrames : 4 frames
Format settings, GOP : M=1, N=32
Codec ID : V_MPEG4/ISO/AVC
Duration : 59mn 14s
Bit rate : 3 300 Kbps
Width : 1 280 pixels
Height : 720 pixels
Display aspect ratio : 16:9
Frame rate : 25.000 fps
Color space : YUV
Chroma subsampling : 4:2:0
Bit depth : 8 bits
Scan type : Progressive
Bits/(Pixel*Frame) : 0.143
Stream size : 1.32 GiB (87%)
Writing library : x264 core 115 r1995 c1e60b9
Encoding settings : cabac=0 / ref=3 / deblock=0:0:0 / analyse=0x3:0x113 / me=hex / subme=7 / psy=1 / psy_rd=1.00:0.00 / mixed_ref=1 / me_range=16 / chroma_me=1 / trellis=1 / 8x8dct=1 / cqm=0 / deadzone=21,11 / fast_pskip=1 / chroma_qp_offset=-2 / threads=6 / sliced_threads=0 / nr=0 / decimate=1 / interlaced=0 / bluray_compat=0 / constrained_intra=0 / bframes=3 / b_pyramid=2 / b_adapt=1 / b_bias=0 / direct=1 / weightb=0 / open_gop=0 / weightp=0 / keyint=250 / keyint_min=25 / scenecut=40 / intra_refresh=0 / rc_lookahead=40 / rc=abr / mbtree=1 / bitrate=3300 / ratetol=1.0 / qcomp=0.60 / qpmin=0 / qpmax=69 / qpstep=4 / ip_ratio=1.40 / aq=1:1.00
Audio #1
ID : 2
Format : AC-3
Format/Info : Audio Coding 3
Mode extension : CM (complete main)
Codec ID : A_AC3
Duration : 59mn 14s
Bit rate mode : Constant
Bit rate : 192 Kbps
Channel(s) : 2 channels
Channel positions : Front: L R
Sampling rate : 48.0 KHz
Bit depth : 16 bits
Compression mode : Lossy
Stream size : 81.4 MiB (5%)
Language : Russian
Audio #2
ID : 3
Format : AC-3
Format/Info : Audio Coding 3
Mode extension : CM (complete main)
Codec ID : A_AC3
Duration : 59mn 14s
Bit rate mode : Constant
Bit rate : 192 Kbps
Channel(s) : 2 channels
Channel positions : Front: L R
Sampling rate : 48.0 KHz
Bit depth : 16 bits
Compression mode : Lossy
Stream size : 81.4 MiB (5%)
Language : English
Скриншоты
1. Numbers - Числа
2. Shapes - Фигуры
3. Prediction - Прогноз
Download
Чтобы скачать .torrent файл необходима регистрация
Сайт не распространяет и не хранит электронные версии произведений, а лишь предоставляет доступ к создаваемому пользователями каталогу ссылок на торрент-файлы, которые содержат только списки хеш-сумм
[Профиль]  [ЛС] 

MargAA

Стаж: 9 лет 5 месяцев

Сообщений: 978


MargAA · 25-Ноя-12 14:40 (спустя 4 дня)

[Цитировать] 

спасибо большое!!
между прочим - у ВВС новый 6-ти серийный фильм, посвященный науке (3 серии на английском уже показали) -
Dara O Briain's Science Club - http://www.bbc.co.uk/programmes/p00zxmqd
[Профиль]  [ЛС] 

БэстЛайв

Стаж: 7 лет 4 месяца

Сообщений: 470

БэстЛайв · 16-Фев-13 21:04 (спустя 2 месяца 21 день)

[Цитировать] 

Всем спасибо за спасибо! И в свою очередь хочу вам сказать спасибо, то что остаетесь на раздаче!
[Профиль]  [ЛС] 

qwerty35b

Стаж: 8 лет 4 месяца

Сообщений: 37


qwerty35b · 24-Фев-13 14:08 (спустя 7 дней)

[Цитировать] 

Спасибо за фильм.
Подскажите в каком фильме моделировался полет стаи птиц?
[Профиль]  [ЛС] 

Antares23

Стаж: 8 лет 1 месяц

Сообщений: 22


Antares23 · 25-Фев-13 14:16 (спустя 1 день)

[Цитировать] 

qwerty35b писал(а):
Подскажите в каком фильме моделировался полет стаи птиц?
Помоему последняя - "Предсказание".
[Профиль]  [ЛС] 

mkay

Колония прокаженных

Стаж: 10 лет 4 месяца

Сообщений: 211

mkay · 08-Май-14 22:00 (спустя 1 год 2 месяца)

[Цитировать] 

Хороший фильм, плюсую! Из той же серии советую у Джима АльХалили "Тайная жизнь хаоса" (или как то так, не помню точно, в оригинале Order and Disorder кажется)
[Профиль]  [ЛС] 

rammstein374

Стаж: 3 года 10 месяцев

Сообщений: 1


rammstein374 · 30-Янв-15 20:44 (спустя 8 месяцев)

[Цитировать] 

Как качество звука и изображения?
[Профиль]  [ЛС] 
 
Ответить
Loading...
Error