Адрес РуТрекера для пользователей РФ - MainTracker.org

Расскажи друзьям:  

Королева Проклятых / Queen of the Damned (Майкл Раймер / Michael Rymer) [2002, США, Австралия, ужасы, фэнтези, музыка, BDRip] Dub + MVO + AVO + Sub Rus

Страницы:  1

Ответить
Автор
Сообщение

андр64

Top Seed 04* 320r

Стаж: 7 лет 11 месяцев

Сообщений: 507

андр64 · 16-Ноя-12 20:33 (5 лет назад, ред. 18-Ноя-12 12:08)

Королева Проклятых / Queen of the Damned
Страна: США, Австралия
Жанр: ужасы, фэнтези, музыка
Год выпуска: 2002
Продолжительность: 01:41:29
Перевод: Профессиональный (дублированный)
Перевод 2: Профессиональный (многоголосый закадровый) "Мост Видео"
Перевод 3: Одноголосый (закадровый) Леонид Векшин
Субтитры: нет
Режиссер: Майкл Раймер / Michael Rymer
В ролях: Стюарт Таунсенд, Элайя, Маргерит Моро, Пол МакГэнн, Венсен Перес, Лина Улин и др.
Описание: Легендарный вампир Лестат восстал из темных глубин, чтобы стать кумиром миллионов в образе рок-звезды, чья жажда крови и дьявольская музыка пробудили к жизни другое существо, королеву всех вампиров, несущую смерть. Веками она ждала шанса вернуть себе трон империи зла. Ее зовут Акаша, Прародительница всех вампиров. Пришло ее время: явился тот, кого она ждала. Чарующая мрачная музыка Лестата покоряет весь мир и зажигает страсть во всесильной Акаше. Они могут вместе вечно править миром. Но этому может помешать другое чувство: любовь Лестата к смертной девушке...
Сэмпл: http://multi-up.com/791084
Качество видео: BDRip (Исходник BDRemux 1080p)
Формат видео: AVI
Видео: 720x304 (2.37:1), 23.976 fps, XviD MPEG-4 ~2105 kbps avg, 0.40 bit/pixel
Аудио 1: 48 kHz, AC3 Dolby Digital, 2/0 (L,R) ch, ~224 kbps, Dub
Аудио 2: 48 kHz, AC3 Dolby Digital, 3/2 (L,C,R,l,r) + LFE ch, ~448 kbps, MVO
Аудио 3: 44.1 kHz, AC3 Dolby Digital, 2/0 (L,R) ch, ~192 kbps, AVO
MediaInfo
Общее
Полное имя : F:\Queen.of.the.Damned.2002.BDRip.2100 .avi
Формат : AVI
Формат/Информация : Audio Video Interleave
Профиль формата : OpenDML
Размер файла : 2,11 Гбайт
Продолжительность : 1 ч. 41 м.
Общий поток : 2976 Кбит/сек
Программа кодирования : VirtualDubModRus 1.5.10.2 (build 2542/release)
Библиотека кодирования : VirtualDubMod build 2542/release
Видео
Идентификатор : 0
Формат : MPEG-4 Visual
Профиль формата : Advanced Simple@L5
Параметр BVOP формата : 2
Параметр QPel формата : Нет
Параметр GMC формата : Без точки перехода
Параметр матрицы формата : Default (MPEG)
Идентификатор кодека : XVID
Идентификатор кодека/Подсказка : XviD
Продолжительность : 1 ч. 41 м.
Битрейт : 2088 Кбит/сек
Ширина : 720 пикселей
Высота : 304 пикселя
Соотношение сторон : 2,35:1
Частота кадров : 23,976 кадра/сек
Цветовое пространство : YUV
Субдискретизация насыщенности : 4:2:0
Битовая глубина : 8 бит
Тип развёртки : Прогрессивная
Метод сжатия : С потерями
Бит/(Пиксели*Кадры) : 0.398
Размер потока : 1,48 Гбайт (70%)
Библиотека кодирования : XviD 65
Аудио #1
Идентификатор : 1
Формат : AC-3
Формат/Информация : Audio Coding 3
Расширение режима : CM (complete main)
Параметр Endianness формата : Big
Идентификатор кодека : 2000
Продолжительность : 1 ч. 41 м.
Вид битрейта : Постоянный
Битрейт : 224 Кбит/сек
Каналы : 2 канала
Расположение каналов : Front: L R
Частота : 48,0 КГц
Битовая глубина : 16 бит
Метод сжатия : С потерями
Размер потока : 163 Мбайт (8%)
Выравнивание : Разделение по промежуткам
Продолжительность промежутка : 42 мс. (1,00 видеокадр)
Время предзагрузки промежутка : 500 мс.
Аудио #2
Идентификатор : 2
Формат : AC-3
Формат/Информация : Audio Coding 3
Расширение режима : CM (complete main)
Параметр Endianness формата : Big
Идентификатор кодека : 2000
Продолжительность : 1 ч. 41 м.
Вид битрейта : Постоянный
Битрейт : 448 Кбит/сек
Каналы : 6 каналов
Расположение каналов : Front: L C R, Side: L R, LFE
Частота : 48,0 КГц
Битовая глубина : 16 бит
Метод сжатия : С потерями
Размер потока : 325 Мбайт (15%)
Выравнивание : Разделение по промежуткам
Продолжительность промежутка : 42 мс. (1,00 видеокадр)
Время предзагрузки промежутка : 500 мс.
Аудио #3
Идентификатор : 3
Формат : AC-3
Формат/Информация : Audio Coding 3
Расширение режима : CM (complete main)
Параметр Endianness формата : Big
Идентификатор кодека : 2000
Продолжительность : 1 ч. 41 м.
Вид битрейта : Постоянный
Битрейт : 192 Кбит/сек
Каналы : 2 канала
Расположение каналов : Front: L R
Частота : 44,1 КГц
Битовая глубина : 16 бит
Метод сжатия : С потерями
Размер потока : 139 Мбайт (6%)
Выравнивание : Разделение по промежуткам
Продолжительность промежутка : 42 мс. (1,00 видеокадр)
Время предзагрузки промежутка : 500 мс.
Скриншот c названием фильма
Скриншоты
Download
Чтобы скачать .torrent файл необходима регистрация
Сайт не распространяет и не хранит электронные версии произведений, а лишь предоставляет доступ к создаваемому пользователями каталогу ссылок на торрент-файлы, которые содержат только списки хеш-сумм
[Профиль]  [ЛС] 

bm11

Moderator

Стаж: 8 лет 11 месяцев

Сообщений: 19312

bm11 · 16-Ноя-12 20:45 (спустя 12 мин.)

[Цитировать] 

http://maintracker.org/forum/viewtopic.php?t=1125286
  1. Как правильно сделать сравнение скриншотов ⇒

андр64 писал(а):
56356274Перевод 3: Авторский (одноголосый закадровый) Леонид Векшин
Ознакомьтесь, пожалуйста:
  1. Правила раздела Зарубежное кино ⇒
[Профиль]  [ЛС] 

андр64

Top Seed 04* 320r

Стаж: 7 лет 11 месяцев

Сообщений: 507

андр64 · 16-Ноя-12 22:22 (спустя 1 час 36 мин., ред. 16-Ноя-12 22:22)

[Цитировать] 

bm11
Авторский поправил на Одноголосый.
Сравнение с http://maintracker.org/forum/viewtopic.php?t=1125286
http://screenshotcomparison.com/comparison/158420/picture:2
[Профиль]  [ЛС] 

bm11

Moderator

Стаж: 8 лет 11 месяцев

Сообщений: 19312

bm11 · 17-Ноя-12 07:57 (спустя 9 часов)

[Цитировать] 

андр64
ок. последний вопрос:
андр64 писал(а):
56356274Субтитры: нет
андр64 писал(а):
56356274Формат субтитров: softsub (SRT)
???
[Профиль]  [ЛС] 

dimka798

Стаж: 6 лет 9 месяцев

Сообщений: 15


dimka798 · 19-Ноя-12 15:58 (спустя 2 дня 8 часов)

[Цитировать] 

андр64
как у моста может быть многоголосый когда там дубляж у меня кассета была и есть Дубляж Мост Видео не как не озвучка озвучка у вас должна быть другой но не от мост видео скиньте семпл в личку где говорят что фильм озвучен мост видео
[Профиль]  [ЛС] 

D31MO$

Стаж: 12 лет 3 месяца

Сообщений: 93

D31MO$ · 19-Ноя-12 18:01 (спустя 2 часа 3 мин.)

[Цитировать] 

как обычно куча умников со своим обсуждением качества картинки..сразу пишите как фильм.никому ваши доводы не нужны о качестве.кому надо тот знает что нужно качать в плане видео и звука.
[Профиль]  [ЛС] 

listing001

Стаж: 6 лет 4 месяца

Сообщений: 20


listing001 · 27-Ноя-12 19:43 (спустя 8 дней)

[Цитировать] 

D31MO$ писал(а):
56407114как обычно куча умников со своим обсуждением качества картинки..сразу пишите как фильм.никому ваши доводы не нужны о качестве.кому надо тот знает что нужно качать в плане видео и звука.
Ты за семь с лишним лет на трекере так ума и не набрался!
Как фильм - нормальные люди уже лет десять и так знают, и посмотрели, и саунд скачали, а вот то, что фильм только-только в BD вышел - вот это знаковое событие.
Отсюда и ответ - здесь качество картинки куда важнее, чем школотовский вопрос про содержание давно всем известного фильма.
[Профиль]  [ЛС] 

Gerry Dendridzh

Стаж: 4 года 1 месяц

Сообщений: 2

Gerry Dendridzh · 04-Ноя-13 20:56 (спустя 11 месяцев)

[Цитировать] 

Перезалейте Сэмпл пожалуйста, а то при скачке выдаёт ошибку.
[Профиль]  [ЛС] 

HookieVisualglukkie

Стаж: 9 лет 8 месяцев

Сообщений: 22

HookieVisualglukkie · 20-Июл-15 23:08 (спустя 1 год 8 месяцев)

[Цитировать] 

Стюарт тут адски сексуален
[Профиль]  [ЛС] 

kate london

Стаж: 9 лет 3 месяца

Сообщений: 1609

kate london · 20-Сен-16 23:59 (спустя 1 год 2 месяца)

[Цитировать] 

Фильм местами напоминает Dracula 2000. К слову, там тоже саунд на уровне.
[Профиль]  [ЛС] 

chingachkukbeee

Стаж: 4 года 1 месяц

Сообщений: 38


chingachkukbeee · 29-Авг-17 12:45 (спустя 11 месяцев)

[Цитировать] 

любимый фильм Стефани Мейер)
[Профиль]  [ЛС] 
 
Ответить
Loading...
Error