Адрес РуТрекера для пользователей РФ - MainTracker.org

Расскажи друзьям:  

(Galician Folk) Luar Na Lubre - Mar Major - 2012, FLAC (image+.cue), lossless

Страницы:  1

Ответить
Автор
Сообщение

OldApe

Стаж: 8 лет 7 месяцев

Сообщений: 227

OldApe · 28-Окт-12 13:17 (4 года 10 месяцев назад)

Luar Na Lubre / Mar Major
Жанр: Galician Folk
Страна-производитель диска: EU
Год издания: 2012
Издатель (лейбл): Warner Music Spain
Страна: Spain
Аудиокодек: FLAC (*.flac)
Тип рипа: image+.cue
Битрейт аудио: lossless
Источник (релизер): Собственный рип
Наличие сканов в содержимом раздачи: нет
Треклист:
1 A Invocación De Amergín 5:19
2 Romance De Novembro 5:18
3 Ith
4 Camino De Caión
5 Gran Sol
6 Dona Alda
7 Santa María Loei
8 Leabhar Ghabhála
9 Mandad'ei Comigo
10 Ao Pasar Pola Coruña
11 Milesians
12 Canto De Arada
13 Les Sets Gotxs
14 Camiña Don Sancho
Лог создания рипа
Exact Audio Copy V1.0 beta 3 from 29. August 2011
EAC extraction logfile from 7. October 2012, 14:27
Luar na lubre / Mar Maior
Used drive : Optiarc DVD RW AD-7243S Adapter: 1 ID: 1
Read mode : Secure
Utilize accurate stream : Yes
Defeat audio cache : Yes
Make use of C2 pointers : No
Read offset correction : 48
Overread into Lead-In and Lead-Out : No
Fill up missing offset samples with silence : Yes
Delete leading and trailing silent blocks : No
Null samples used in CRC calculations : Yes
Used interface : Native Win32 interface for Win NT & 2000
Used output format : User Defined Encoder
Selected bitrate : 1024 kBit/s
Quality : High
Add ID3 tag : No
Command line compressor : C:\Program Files\Exact Audio Copy\FLAC\FLAC.EXE
Additional command line options : -8 -V %source%
TOC of the extracted CD
Track | Start | Length | Start sector | End sector
---------------------------------------------------------
1 | 0:00.00 | 5:20.00 | 0 | 23999
2 | 5:20.00 | 5:22.00 | 24000 | 48149
3 | 10:42.00 | 3:06.00 | 48150 | 62099
4 | 13:48.00 | 4:01.00 | 62100 | 80174
5 | 17:49.00 | 9:21.00 | 80175 | 122249
6 | 27:10.00 | 4:34.00 | 122250 | 142799
7 | 31:44.00 | 5:10.74 | 142800 | 166123
8 | 36:54.74 | 7:17.01 | 166124 | 198899
9 | 44:12.00 | 2:38.74 | 198900 | 210823
10 | 46:50.74 | 4:21.00 | 210824 | 230398
11 | 51:11.74 | 4:02.01 | 230399 | 248549
12 | 55:14.00 | 2:58.00 | 248550 | 261899
13 | 58:12.00 | 2:27.74 | 261900 | 272998
14 | 60:39.74 | 3:39.01 | 272999 | 289424
Range status and errors
Selected range
Filename J:\torrents\Luar Na Lubre - Mar Major\Luar na lubre - Mar Maior.wav
Peak level 100.0 %
Extraction speed 4.2 X
Range quality 100.0 %
Test CRC 46C66EDE
Copy CRC 46C66EDE
Copy OK
No errors occurred
AccurateRip summary
Track 1 accurately ripped (confidence 1) [DCABF8F5] (AR v1)
Track 2 accurately ripped (confidence 1) [F6B11245] (AR v1)
Track 3 accurately ripped (confidence 1) [302A19BD] (AR v1)
Track 4 accurately ripped (confidence 1) [5557FE63] (AR v1)
Track 5 accurately ripped (confidence 1) [02A33B48] (AR v1)
Track 6 accurately ripped (confidence 1) [3ECE00D4] (AR v1)
Track 7 accurately ripped (confidence 1) [9A5A9E29] (AR v1)
Track 8 accurately ripped (confidence 1) [7D420855] (AR v1)
Track 9 accurately ripped (confidence 1) [15B177ED] (AR v1)
Track 10 accurately ripped (confidence 1) [8F5C2A0E] (AR v1)
Track 11 accurately ripped (confidence 1) [846D1801] (AR v1)
Track 12 accurately ripped (confidence 1) [01C5B31F] (AR v1)
Track 13 accurately ripped (confidence 1) [BC04F8A6] (AR v1)
Track 14 accurately ripped (confidence 1) [BF7F3C81] (AR v1)
All tracks accurately ripped
End of status report
Лог проверки качества
-----------------------
DON'T MODIFY THIS FILE
-----------------------
PERFORMER: auCDtect Task Manager, ver. 1.5.1RC4 build 1.5.1.5
Copyright (c) 2008-2010 y-soft. All rights reserved
http://y-soft.org
ANALYZER: auCDtect: CD records authenticity detector, version 0.8.2
Copyright (c) 2004 Oleg Berngardt. All rights reserved.
Copyright (c) 2004 Alexander Djourik. All rights reserved.
FILE: Luar na lubre - Mar Maior.flac
Size: 427173672 Hash: 462E629393594657B1E5B2C27DCEDBD0 Accuracy: -m0
Conclusion: CDDA 100%
Signature: 793F83D3114EEBFD53E1A5D9B19667B20B08F883
Доп. информация: Дискография: http://maintracker.org/forum/viewtopic.php?t=3788137
Download
Чтобы скачать .torrent файл необходима регистрация
Сайт не распространяет и не хранит электронные версии произведений, а лишь предоставляет доступ к создаваемому пользователями каталогу ссылок на торрент-файлы, которые содержат только списки хеш-сумм
[Профиль]  [ЛС] 

OldApe

Стаж: 8 лет 7 месяцев

Сообщений: 227

OldApe · 30-Окт-12 18:18 (спустя 2 дня 5 часов)

[Цитировать] 

IraSib писал(а):
56045657Muchísimas gracias!!!
De nada.
[Профиль]  [ЛС] 

Captain Hastings

Стаж: 8 лет 7 месяцев

Сообщений: 18

Captain Hastings · 24-Ноя-12 12:38 (спустя 24 дня)

[Цитировать] 

Спасибо большое! Первый альбом с новой солисткой.
[Профиль]  [ЛС] 

zoog

Стаж: 9 лет 2 месяца

Сообщений: 787


zoog · 11-Янв-17 09:16 (спустя 4 года 1 месяц)

[Цитировать] 

..ми совмещаем трогательный лиризм (с) кельтского наследия (тм) с солнечными испано-семитскими мотивами..
[Профиль]  [ЛС] 
 
Ответить
Loading...
Error