Адрес РуТрекера для пользователей РФ - MainTracker.org

Расскажи друзьям:  

Кровь за кровь (Юрий Колчеев) [1991, детектив, TVRip]

Страницы:  1

Ответить
Автор
Сообщение

трус

Top Seed 04* 320r

Стаж: 10 лет 1 месяц

Сообщений: 570

трус · 27-Янв-12 21:56 (5 лет 11 месяцев назад, ред. 27-Янв-12 22:41)

Кровь за кровь
Жанр: детектив
Год выпуска: 1991
Продолжительность: 01:33:45
Режиссёр: Юрий Колчеев
В ролях: Александр Фатюшин, Ирина Алфёрова, Борис Галкин, Михаил Глузский, Любовь Соколова, Николай Кочегаров, Борис Новиков, Вера Альховская, Елена Катышева, Артем Каминский, Михаил Бурлаков, Сергей Воробьев, Андрей Гриневич, Александр Домогаров, Александр Иншаков, Галина Коньшина, Станислав Костецкий, Григорий Маликов, Борис Мирза, Игорь Миркурбанов, Александр Мовчан, Георгий Назаренко, Юрий Павлов, Вадим Померанцев, Юрий Слободенюк, Фёдор Смирнов, Кирилл Столяров, Алла Иванова
Описание: Совершено убийство отставного генерала Гриднева, а его квартира ограблена. Майор милиции Таганцев выходит на наводчиков бандитов. Но вору-рецидивисту по кличке Валек удается переиграть сыщика. Группе Таганцева придется основательно потрудиться, чтобы поймать рецидивиста
Доп. информация:
Сценарист: Артур Макаров
Оператор: Григорий Беленький
Композитор: Владимир Рубин
Художник: Вадим Кислых
Продюсер: Борис Бальчинос
Производство:Творческое объединение "Одесса"
Премьера: февраль 1992

КИНО-ТЕАТР.ru
Выкладывается по просьбам. Сам бы я не стал выкладывать эту запись из-за больших банеров канала ТВЦ после рекламных вставок.
В отличие от SATRip, как я понял, это полная версия фильма, без цензуры. К тому же в SATRip есть небольшой рассинхрон картинки и звука.

SATRip в AVI 1.09 GB здесь
Качество видео: TVRip
Формат видео: MPEG2
Видео: MPEG2 Video 720x576 (4:3) 25.00fps 6886 Кбит/сек
Аудио: MPEG Audio 48000Hz stereo192kbps
MediaInfo
Общее
Полное имя : D:\TORENT4\KROVJ.ZA.KROVJ.1991.mpg
Формат : MPEG-PS
Размер файла : 4,73 Гбайт
Продолжительность : 1 ч. 33 м.
Режим общего битрейта : Переменный
Общий поток : 7222 Кбит/сек
Видео
Идентификатор : 224 (0xE0)
Формат : MPEG Video
Версия формата : Version 2
Профиль формата : Main@Main
Параметр BVOP формата : Да
Параметр матрицы формата : По умолчанию
Продолжительность : 1 ч. 33 м.
Вид битрейта : Переменный
Битрейт : 6886 Кбит/сек
Максимальный битрейт : 9400 Кбит/сек
Ширина : 720 пикселей
Высота : 576 пикселей
Соотношение сторон : 4:3
Частота кадров : 25,000 кадров/сек
Стандарт вещания : PAL
Цветовое пространство : YUV
Субдискретизация насыщенности : 4:2:0
Битовая глубина : 8 бит
Тип развёртки : Чересстрочная
Порядок развёртки : Верхнее поле первое
Метод сжатия : С потерями
Бит/(Пиксели*Кадры) : 0.664
Размер потока : 4,51 Гбайт (95%)
Основные цвета : BT.470-2 System B, BT.470-2 System G
Характеристики трансфера : BT.470-2 System B, BT.470-2 System G
Коэффициенты матрицы : BT.470-2 System B, BT.470-2 System G
Аудио
Идентификатор : 192 (0xC0)
Формат : MPEG Audio
Версия формата : Version 1
Профиль формата : Layer 2
Продолжительность : 1 ч. 33 м.
Вид битрейта : Постоянный
Битрейт : 192 Кбит/сек
Каналы : 2 канала
Частота : 48,0 КГц
Метод сжатия : С потерями
Размер потока : 129 Мбайт (3%)
Download
Чтобы скачать .torrent файл необходима регистрация
Сайт не распространяет и не хранит электронные версии произведений, а лишь предоставляет доступ к создаваемому пользователями каталогу ссылок на торрент-файлы, которые содержат только списки хеш-сумм
[Профиль]  [ЛС] 
 

cake341

Стаж: 10 лет

Сообщений: 18


cake341 · 13-Апр-13 21:11 (спустя 1 год 2 месяца, ред. 14-Апр-13 17:15)

[Цитировать] 

Плиз! Вернитесь кто-нить на раздачу!
P.S: НАФИГА было делать файл ТАКОГО размера?!
UPD: Спасибо! Удалось закачать, действительно - полная версия фильма!
[Профиль]  [ЛС] 

griphon9

Стаж: 8 лет 10 месяцев

Сообщений: 189


griphon9 · 13-Янв-18 10:31 (спустя 4 года 8 месяцев)

[Цитировать] 

Спасибо за полную версию фильма!
[Профиль]  [ЛС] 
 
Ответить
Loading...
Error