Адрес РуТрекера для пользователей РФ - MainTracker.org

Расскажи друзьям:  

Destiny's Child - 8 Days of Christmas [2001, R`n`B, HDTV 1080i]

Страницы:  1

Ответить
Автор
Сообщение

Beta&Ksi

Top Seed 03* 160r

Стаж: 7 лет 10 месяцев

Сообщений: 1585

Beta&Ksi · 26-Дек-15 18:55 (2 года 1 месяц назад, ред. 26-Дек-15 19:02)

Destiny's Child - 8 Days of Christmas Жанр: R`n`B
Продолжительность: 00:03:30
Год выпуска: 2001
Описание: К наступающему празднику подарок для любителей клипов в HD. Рождественское видео от одного из самого известного R`n`B коллектива Destiny`s Child. В США традиционно новогодние каникулы длятся 8 дней. В нашей стране 10))
Доп. информация: Файл с Fuse HD.
С НАСТУПАЮЩИМ НОВЫМ ГОДОМ!
Качество: HDTV
Контейнер: TS
Видео кодек: AVC
Аудио кодек: AC3
Видео: 1920 x 1080 (1.778) at 29.970 fps AVC at 13,6 Мбит/сек
Аудио: 2 канала, 48,0 КГц AC3 at 192 Кбит/сек
Отчёт MediaInfo / BDInfo
Формат                                   : MPEG-TS
Размер файла : 364 Мбайт
Продолжительность : 3 м. 30 с.
Режим общего битрейта : Переменный
Общий поток : 14,5 Мбит/сек
Видео
Идентификатор : 4113 (0x1011)
Идентификатор меню : 1 (0x1)
Формат : AVC
Формат/Информация : Advanced Video Codec
Профиль формата : High@L4
Параметр CABAC формата : Да
Параметр ReFrames формата : 3 кадра
Идентификатор кодека : 27
Продолжительность : 3 м. 30 с.
Битрейт : 13,6 Мбит/сек
Ширина : 1920 пикселей
Высота : 1080 пикселей
Соотношение сторон : 16:9
Частота кадров : 29,970 кадров/сек
Стандарт вещания : Component
Цветовое пространство : YUV
Субдискретизация насыщенности : 4:2:0
Битовая глубина : 8 бит
Тип развёртки : MBAFF
Порядок развёртки : Верхнее поле первое
Бит/(Пиксели*Кадры) : 0.219
Размер потока : 341 Мбайт (94%)
Цветовой диапазон : Limited
Основные цвета : BT.709
Характеристики трансфера : BT.709
Коэффициенты матрицы : BT.709
Аудио
Идентификатор : 4352 (0x1100)
Идентификатор меню : 1 (0x1)
Формат : AC-3
Формат/Информация : Audio Coding 3
Расширение режима : CM (complete main)
Параметр Endianness формата : Big
Идентификатор кодека : 129
Продолжительность : 3 м. 29 с.
Вид битрейта : Постоянный
Битрейт : 192 Кбит/сек
Каналы : 2 канала
Расположение каналов : Front: L R
Частота : 48,0 КГц
Метод сжатия : С потерями
Размер потока : 4,81 Мбайт (1%)
Язык : English
Скриншоты
С Наступающим Праздником!
Download
Чтобы скачать .torrent файл необходима регистрация
Сайт не распространяет и не хранит электронные версии произведений, а лишь предоставляет доступ к создаваемому пользователями каталогу ссылок на торрент-файлы, которые содержат только списки хеш-сумм
[Профиль]  [ЛС] 
 

bot · 27-Дек-17 12:49 (спустя 2 года)

Тема была перенесена из форума Рэп, Хип-Хоп, R'n'B (HD Видео) в форум Музыкальное видео
anbelk27
 

bot · 17-Янв-18 22:16 (спустя 2 года)

Тема была перенесена из форума Музыкальное видео в форум Рэп, Хип-Хоп, R'n'B (HD Видео)
A$taroth
 
 
Ответить
Loading...
Error