Адрес РуТрекера для пользователей РФ - MainTracker.org

Расскажи друзьям:  

Bruno Mars - 24K Magic: Live at the Apollo [2017, R&B/Funk/Pop, HDTV, 1080i]

Страницы:  1

Ответить
Автор
Сообщение

anbelk27

Admin

Стаж: 8 лет 10 месяцев

Сообщений: 5327

anbelk27 · 05-Дек-17 21:42 (2 месяца 19 дней назад)

Bruno Mars - 24K Magic: Live at the Apollo
Жанр: R&B/Funk/Pop
Продолжительность: 00:43:04
Год выпуска: 2017
Описание: Featuring the GRAMMY® Award winner and his band, the Hooligans, Bruno Mars: 24K Magic Live at the Apollo takes place in New York City and showcases your favorite Bruno singles, plus never-before-seen footage of Mars and the Hooligans performing atop the famous Apollo Theater marquee.
TV эфир 29.11.17
Треклист:
Live at Apollo Theater, New York, NY, USA 10.09.17
1. 24K Magic
2. Finesse
3. Perm
4. Calling All My Lovelies
5. Chunky
6. That's What I Like
7. Straight Up & Down
8. Versace on the Floor
9. Uptown Funk (Mark Ronson cover)
Качество: HDTV
Разрешение видео/развертка: 1080i
Контейнер: TS
Видео кодек: H.264
Аудио кодек: DTS
Видео: AVC, 1920x1080 (16:9), 59.940 fps, 15.2 Mbps
Аудио: DTS-HD MA 5.1 / 48 kHz / 3308 kbps / 24-bit (DTS Core: 5.1 / 48 kHz / 1509 kbps / 24-bit)
MediaInfo
General
Unique ID : 235494688516714911832547466839631860725 (0xB12AA0928750B16AAF6E494290F013F5)
Complete name : G:\HDBits\Bruno Mars Presents 24K Magic Live At The Apollo NETWORK FEED 1080i h264 4-2-2 16mbps DTSHDMA 5.1-ALANiS.mkv
Format : Matroska
Format version : Version 4 / Version 2
File size : 5.20 GiB
Duration : 43 min 3 s
Overall bit rate : 17.3 Mb/s
Encoded date : UTC 2017-12-02 20:14:56
Writing application : mkvmerge v18.0.0 ('Apricity') 64-bit
Writing library : libebml v1.3.5 + libmatroska v1.4.8
Video
ID : 1
Format : AVC
Format/Info : Advanced Video Codec
Format profile : High 4:2:2@L4.1
Format settings, CABAC : Yes
Format settings, RefFrames : 2 frames
Codec ID : V_MPEG4/ISO/AVC
Duration : 43 min 3 s
Bit rate mode : Constant
Bit rate : 14.0 Mb/s
Nominal bit rate : 15.2 Mb/s
Width : 1 920 pixels
Height : 1 080 pixels
Display aspect ratio : 16:9
Frame rate mode : Variable
Frame rate : 59.940 (60000/1001) FPS
Original frame rate : 29.970 (30000/1001) FPS
Color space : YUV
Chroma subsampling : 4:2:2
Bit depth : 8 bits
Scan type : Interlaced
Scan type, store method : Separated fields
Scan order : Top Field First
Bits/(Pixel*Frame) : 0.113
Stream size : 4.21 GiB (81%)
Default : Yes
Forced : No
Audio
ID : 2
Format : DTS
Format/Info : Digital Theater Systems
Format profile : MA / Core
Mode : 16
Format settings, Endianness : Big
Codec ID : A_DTS
Duration : 43 min 3 s
Bit rate mode : Variable / Constant
Bit rate : 3 308 kb/s / 1 509 kb/s
Channel(s) : 6 channels
Channel positions : Front: L C R, Side: L R, LFE
Sampling rate : 48.0 kHz
Frame rate : 93.750 FPS (512 SPF)
Bit depth : 24 bits
Compression mode : Lossless / Lossy
Stream size : 1 019 MiB (19%)
Language : English
Default : Yes
Forced : No
Скриншоты
Download
Чтобы скачать .torrent файл необходима регистрация
Сайт не распространяет и не хранит электронные версии произведений, а лишь предоставляет доступ к создаваемому пользователями каталогу ссылок на торрент-файлы, которые содержат только списки хеш-сумм
[Профиль]  [ЛС] 
 

azzis92

Стаж: 1 год 2 месяца

Сообщений: 1


azzis92 · 09-Дек-17 00:26 (спустя 3 дня)

[Цитировать] 

Thx it was a GREAT concert this guy and his band know their "shit"
[Профиль]  [ЛС] 

Shoroh1970

Стаж: 8 лет 1 месяц

Сообщений: 317


Shoroh1970 · 06-Янв-18 17:30 (спустя 28 дней)

[Цитировать] 

Ого, случайно наткнулся. Как-то привык, что записи с ним в разделе поп-музыки размещают, как и того же Тимберлейка.
[Профиль]  [ЛС] 

Byttizz

Стаж: 7 лет 7 месяцев

Сообщений: 26

Byttizz · 14-Янв-18 23:18 (спустя 8 дней)

[Цитировать] 

Где раздача?
[Профиль]  [ЛС] 

anbelk27

Admin

Стаж: 8 лет 10 месяцев

Сообщений: 5327

anbelk27 · 15-Янв-18 00:21 (спустя 1 час 3 мин.)

[Цитировать] 

Byttizz писал(а):
74606629Где раздача?
Цитата:
Сиды: 9 Личи: 5
Да, пропала что-то....
[Профиль]  [ЛС] 

velezarius

Стаж: 8 лет 8 месяцев

Сообщений: 63


velezarius · 29-Янв-18 08:07 (спустя 14 дней)

[Цитировать] 

Вот как это вапче мона считать музыкой - не понимаю...
[Профиль]  [ЛС] 

globeweb

Стаж: 8 лет 1 месяц

Сообщений: 8


globeweb · 29-Янв-18 11:38 (спустя 3 часа)

[Цитировать] 

velezarius писал(а):
74695359Вот как это вапче мона считать музыкой - не понимаю...
Однако, 24K Magic Бруно Марса получил «Грэмми» как лучший альбом года
[Профиль]  [ЛС] 

Constantine Baidan

Стаж: 1 год 1 месяц

Сообщений: 85

Constantine Baidan · 29-Янв-18 21:34 (спустя 9 часов)

[Цитировать] 

Выложите 24K Magic винил оцифрованный - на HDBits он ведь наверняка есть, а то всякие базары/безбазары одно старье оцифровывают.
[Профиль]  [ЛС] 
 
Ответить
Loading...
Error