Адрес РуТрекера для пользователей РФ - MainTracker.org

Расскажи друзьям:  

Сваты 3 / Сезон: 3 Серии: 1-12 из 12 (Андрей Яковлев) [2009, комедия, HDTV 1080i]

Страницы:  1

Ответить
Автор
Сообщение

stekJIovat

Стаж: 7 лет

Сообщений: 90

stekJIovat · 03-Янв-13 20:27 (4 года 11 месяцев назад, ред. 05-Мар-14 22:45)

Сваты 3
Год выпуска: 2009
Производство: Украина, Квартал-95
Жанр: комедия
Продолжительность: 12 x ~ 00:50:00
Режиссёр: Андрей Яковлев
В ролях: Людмила Артемьева, Федор Добронравов, Татьяна Кравченко, Анатолий Васильев, София Стеценко, Николай Добрынин, Маргарита Шубина
Описание: Главные герои сериала «Сваты» — девочка Женя и ее такие разные бабушки и дедушки: городские интеллигенты Ковалевы и типичные сельские жители Будько.
Родители Женечки — Маша и Максим — уезжают в Голландию и оставляют дочь в поселке на попечение Будько. Ковалевы приезжают помочь присмотреть за любимой внучкой, а заодно подготовить ее к поступлению в лицей! Так под одной крышей оказываются две семьи — городская и сельская. Противостояние между ними, сближение и объединение против общего врага обеспечивает сериал событиями и приключениями на все 12 серий!
Все раздачи сериала
4-й сезон HDTVRip
5-й сезон HDTV
Семпл

Качество: HDTV 1080i
Формат: TS
Видео кодек: H.264
Аудио кодек: MP2
Видео: MPEG-4 AVC, 1920x1080, 25 fps, ~ 8000 kbps, ~ 0.146 bit/pixel
Аудио: MP2, 48 kHz, 2 ch, 256 kbps
MI
Общее
Идентификатор : 1 (0x1)
Полное имя : Сваты.S03E01.1080i.HDTV.Rus.HDCLUB.ts
Формат : MPEG-TS
Размер файла : 2,75 Гбайт
Продолжительность : 48 м.
Режим общего битрейта : Переменный
Общий поток : 8193 Кбит/сек
Видео
Идентификатор : 201 (0xC9)
Идентификатор меню : 1 (0x1)
Формат : AVC
Формат/Информация : Advanced Video Codec
Профиль формата : High@L4.0
Параметр CABAC формата : Да
Параметр ReFrames формата : 3 кадра
Идентификатор кодека : 27
Продолжительность : 48 м.
Битрейт : 7594 Кбит/сек
Ширина : 1920 пикселей
Высота : 1080 пикселей
Соотношение сторон : 16:9
Частота кадров : 25,000 кадров/сек
Цветовое пространство : YUV
Субдискретизация насыщенности : 4:2:0
Битовая глубина : 8 бит
Тип развёртки : Чересстрочная
Порядок развёртки : Верхнее поле первое
Бит/(Пиксели*Кадры) : 0.146
Размер потока : 2,55 Гбайт (93%)
Аудио
Идентификатор : 210 (0xD2)
Идентификатор меню : 1 (0x1)
Формат : MPEG Audio
Версия формата : Version 1
Профиль формата : Layer 2
Идентификатор кодека : 3
Продолжительность : 48 м.
Вид битрейта : Постоянный
Битрейт : 192 Кбит/сек
Каналы : 2 канала
Частота : 48,0 КГц
Метод сжатия : С потерями
Размер потока : 66,0 Мбайт (2%)
Язык : Russian
Скриншоты
Download
Чтобы скачать .torrent файл необходима регистрация
Сайт не распространяет и не хранит электронные версии произведений, а лишь предоставляет доступ к создаваемому пользователями каталогу ссылок на торрент-файлы, которые содержат только списки хеш-сумм
[Профиль]  [ЛС] 

stekJIovat

Стаж: 7 лет

Сообщений: 90

stekJIovat · 03-Янв-13 20:55 (спустя 28 мин.)

[Цитировать] 

Вырезанных сцен как на DVB не обнаружено. Но конечные титры к сожалению отсутствуют.
[Профиль]  [ЛС] 

flame42russia

Стаж: 5 лет 6 месяцев

Сообщений: 5

flame42russia · 15-Янв-13 18:34 (спустя 11 дней)

[Цитировать] 

пфф картинка за звуком не успевает :с
[Профиль]  [ЛС] 

best 0f the best

Стаж: 8 лет 9 месяцев

Сообщений: 382

best 0f the best · 04-Фев-13 19:05 (спустя 20 дней)

[Цитировать] 

stekJIovat писал(а):
57155403Вырезанных сцен как на DVB не обнаружено. Но конечные титры к сожалению отсутствуют.
Да, без титров как обрезки...
[Профиль]  [ЛС] 

dimapv30

Стаж: 7 лет 10 месяцев

Сообщений: 2


dimapv30 · 11-Фев-13 20:39 (спустя 7 дней, ред. 19-Авг-14 09:54)

[Цитировать] 

Серия Svaty.S03E10.1080i.HDTV.Rus.HDCLUB битая перезалейте пожалуйста
[Профиль]  [ЛС] 

stekJIovat

Стаж: 7 лет

Сообщений: 90

stekJIovat · 16-Фев-13 11:44 (спустя 4 дня)

[Цитировать] 

dimapv30 писал(а):
57839834Серия Svaty.S03E10.1080i.HDTV.Rus.HDCLUB разбита перезалейте пожалуйста
куда разбита, где разбита... ничего не понял.
[Профиль]  [ЛС] 

hopto777

Стаж: 7 лет 9 месяцев

Сообщений: 9


hopto777 · 18-Фев-16 23:26 (спустя 3 года)

[Цитировать] 

вторая серия 13:47 коцаная(((
[Профиль]  [ЛС] 

autokraski

Стаж: 3 года 9 месяцев

Сообщений: 1


autokraski · 27-Мар-16 11:58 (спустя 1 месяц 8 дней)

[Цитировать] 

при закачке постоянно выдает ошибку
[Профиль]  [ЛС] 

asdfront

Стаж: 8 лет 1 месяц

Сообщений: 8


asdfront · 06-Ноя-17 14:59 (спустя 1 год 7 месяцев)

[Цитировать] 

Битрейт аудио: 192 Кбит/сек, а в описании 256 kbps, надо бы исправить )
[Профиль]  [ЛС] 
 
Ответить
Loading...
Error