Адрес РуТрекера для пользователей РФ - MainTracker.org

Расскажи друзьям:  

Сваты 4 / Серии: 1-16 из 16 (Андрей Яковлев) [2010, Комедия, HDTVRip]

Страницы:  1

Ответить
Автор
Сообщение

chuvakov77

Стаж: 8 лет 3 месяца

Сообщений: 57

chuvakov77 · 22-Дек-13 02:05 (3 года 11 месяцев назад, ред. 30-Янв-14 05:49)

Сваты 4
Год выпуска: 2010
Производство: «Студия Квартал-95»
Жанр: Комедия
Продолжительность:16 х ~ 00:48:00

Режиссёр: Андрей Яковлев
В ролях: Фёдор Добронравов, Татьяна Кравченко, Анатолий Васильев, Людмила Артемьева, София Стеценко, Николай Добрынин, Олеся Железняк, Владимир Зельдин, Ольга Аросева, Александр Феклистов, Олег Комаров (II), Руслана Писанка, Инна Королёва, Даниил Белых, Филипп Киркоров, Олеся Жураковская, Валерий Гурьев (II), Фёдор Гапоненко, Анна Саливанчук, Сергей Серов, Ирина Аугшкап (Серова), Ольга Котляренко, Дмитрий Суржиков, Сергей Бойко, Сергей Кучеренко, Софья Джунь, Андрей Дзубан, Анатолий Семёнов (V), Светлана Дорохина, Анастасия (Ася) Бакланова, Мария Кондратенко, Алексей Красноженюк, Егор Крутоголов, Фёдор Ольховский, Георгий Поволоцкий, Инна Хотеенкова

Описание: В четвертой части "Сватов" телезрители смогут наблюдать за курортными приключениями полюбившихся героев. На этот раз бабушки и дедушки отправятся в Крым. Но они туда поедут не столько отдыхать, сколько опекать свою любимую внучку Женечку, которую родители отправили в детский лагерь "Артек". Сваты так и не научились жить без внучки, но они и не научились жить друг с другом! В "Сватах-4" телезрителей ждет еще больше юмора, еще больше забавных ситуаций и знакомство с новыми героями.
Исходник
Все раздачи сериала
Сэмпл


Качество: HDTVRip (1080i)
Формат: AVI
Видео кодек: XviD
Аудио кодек: MP3
Видео: 720x400 (1.80:1), 25 fps, XviD build 50 ~1400 kbps avg, 0.19 bit/pixel
Аудио: 48 kHz, MPEG Layer 3, 2 ch, ~128.00 kbps avg
MI
Код:
Общее
Полное имя                               : D:\Downloads\Svaty.S04.1080i.HDTV.Rus.HDCLUB\Новая папка\Svaty.S04E01.HDTVRip.avi
Формат                                   : AVI
Формат/Информация                        : Audio Video Interleave
Размер файла                             : 558 Мбайт
Продолжительность                        : 50 м.
Общий поток                              : 1539 Кбит/сек
Библиотека кодирования                   : VirtualDub build 32593/release
Видео
Идентификатор                            : 0
Формат                                   : MPEG-4 Visual
Профиль формата                          : Advanced Simple@L5
Параметр BVOP формата                    : Нет
Параметр QPel формата                    : Нет
Параметр GMC формата                     : Без точки перехода
Параметр матрицы формата                 : Default (MPEG)
Идентификатор кодека                     : XVID
Идентификатор кодека/Подсказка           : XviD
Продолжительность                        : 50 м.
Битрейт                                  : 1401 Кбит/сек
Ширина                                   : 720 пикселей
Высота                                   : 400 пикселей
Соотношение сторон                       : 16:9
Частота кадров                           : 25,000 кадров/сек
Цветовое пространство                    : YUV
Субдискретизация насыщенности            : 4:2:0
Битовая глубина                          : 8 бит
Тип развёртки                            : Прогрессивная
Метод сжатия                             : С потерями
Бит/(Пиксели*Кадры)                      : 0.195
Размер потока                            : 508 Мбайт (91%)
Библиотека кодирования                   : XviD 1.2.1 (UTC 2008-12-04)
Аудио
Идентификатор                            : 1
Формат                                   : MPEG Audio
Версия формата                           : Version 1
Профиль формата                          : Layer 3
Режим                                    : Joint stereo
Расширение режима                        : MS Stereo
Идентификатор кодека                     : 55
Идентификатор кодека/Подсказка           : MP3
Продолжительность                        : 50 м.
Вид битрейта                             : Постоянный
Битрейт                                  : 128 Кбит/сек
Каналы                                   : 2 канала
Частота                                  : 48,0 КГц
Метод сжатия                             : С потерями
Размер потока                            : 46,4 Мбайт (8%)
Выравнивание                             : Разделение по промежуткам
Продолжительность промежутка             : 40  мс. (1,00 видеокадр)
Время предзагрузки промежутка            : 500  мс.
Библиотека кодирования                   : LAME3.98.2
Скриншоты
Download
Чтобы скачать .torrent файл необходима регистрация
Сайт не распространяет и не хранит электронные версии произведений, а лишь предоставляет доступ к создаваемому пользователями каталогу ссылок на торрент-файлы, которые содержат только списки хеш-сумм
[Профиль]  [ЛС] 

Митяй Буханкин

Стаж: 7 лет

Сообщений: 17

Митяй Буханкин · 26-Дек-13 19:59 (спустя 4 дня)

[Цитировать] 

[Профиль]  [ЛС] 

phs018

Стаж: 7 лет 5 месяцев

Сообщений: 4

phs018 · 31-Янв-14 21:57 (спустя 1 месяц 5 дней)

[Цитировать] 

http://i41.fastpic.ru/big/2012/0825/3b/4fbc0df99d0a634f89cf7430b01e9b3b.gif
[Профиль]  [ЛС] 

Ichigo9507

Стаж: 7 лет 9 месяцев

Сообщений: 16

Ichigo9507 · 05-Июл-15 19:28 (спустя 1 год 5 месяцев, ред. 05-Июл-15 19:28)

[Цитировать] 

[Профиль]  [ЛС] 

RrevolverR

Стаж: 4 года

Сообщений: 9

RrevolverR · 10-Авг-15 17:08 (спустя 1 месяц 4 дня)

[Цитировать] 

лучший из отечественных сериалов!!!
[Профиль]  [ЛС] 

mister62

Стаж: 10 лет 2 месяца

Сообщений: 248

mister62 · 05-Янв-16 18:00 (спустя 4 месяца 26 дней)

[Цитировать] 

Спасибо!!! 3 и 4 сезоны самые хорошие! Это конечно же мой взгляд! Спасибо!
[Профиль]  [ЛС] 

sana1913

Стаж: 9 лет

Сообщений: 40

sana1913 · 28-Июн-16 21:51 (спустя 5 месяцев 23 дня)

[Цитировать] 

Ольга Николаевна Ковалёва не такая уж и старая, лет чуть более 50, не много могли бы поменять ход сценария.
В 5 серии могла бы от Валентины Петровны принять в подарок омолаживающее лекарство и крем от фирмы KARY MAY. Ну и в конце сезона после свадьбы, после брачной ночи, забеременеть. Был бы Женьке подарок.
[Профиль]  [ЛС] 

novala

Стаж: 6 лет 1 месяц

Сообщений: 5

novala · 14-Дек-16 19:33 (спустя 5 месяцев 15 дней)

[Цитировать] 

http://i41.fastpic.ru/big/2012/0825/3b/4fbc0df99d0a634f89cf7430b01e9b3b.gif
[Профиль]  [ЛС] 

seamec

Стаж: 9 лет 2 месяца

Сообщений: 132


seamec · 06-Ноя-17 06:09 (спустя 10 месяцев)

[Цитировать] 

4 последний нормальный сезон, 5-6 отстой и шлак к сожалению...Так испортили образ Женьки, ставшей готом, что и смотреть на эту чушь не хочется второй раз...Даже шутки Ивана Бутько не спасали ситуацию...
[Профиль]  [ЛС] 
 
Ответить
Loading...
Error