- MainTracker.org

:  

The Highwaymen - Live: American Outlaws [2016, Country Pop, Country Rock, Progressive Country, Blu-ray, 1080p]

:  1

anbelk27

Admin

: 8 5

: 4279

anbelk27 · 15--17 22:29 (4 5 )

The Highwaymen - Live: American Outlaws
: Country Pop, Country Rock, Progressive Country
: 02:05:39 + 00:32:34
: 2016
: Willie Nelson - vocals, guitar; Johnny Cash - vocals, guitar; Waylon Jennings - vocals, guitar; Kris Kristofferson - vocals, guitar; Gene Chrisman - drums; J.R. Cobb - guitar; Bobby Emmons - keyboards; Mike Leech - bass; Mickey Raphael - harmonica; Danny Timms - keyboards, vocals; Robby Turner - pedal steel; Bobby Wood - keyboards, vocals; Reggie Young - guitar
: The Highwaymen--Johnny Cash, Willie Nelson, Waylon Jennings and Kris Kristofferson--were country music's first bonafide "supergroup," an epic quartet of blockbuster star power comprised of the four prime forces of America's outlaw country music revolution. An essential musical and cultural influence, the Highwaymen were active for the decade spanning 1985 to 1995, recorded three major label albums, charted hit singles (including their Number 1 debut, "Highwayman," which won the Best Country Song Grammy Award in 1986) and performed a variety of shows achieving mythic status for those lucky enough to have been there.
"There's the four of us standing there, grouped around microphones. The Highwaymen. John, Kris, Willie, and me. I don't think there are any other four people like us," wrote Waylon Jennings in Waylon: An Autobiography. "John says that we came together because we all have a life commitment to the music. We know the same songs, but we sing them from different perspectives. We can blend the early country of the Carter Family with Texas swing, southern gospel, and rockabilly, and each of us feels comfortable singing real slices of life. There's not one of us who hasn't come face to face with his own mortality, and many's the time we've gone through our struggles and survivals together....That's our friendship, unlocking any door that stands between us, and it keeps four very different individuals together."
:
Live At Nassau Coliseum, Uniondale, New York, March 14, 1990
1 Intro / Opening Credits
2 Highwaymen
3 Mamas Don't Let Your Babies Grow Up To Be Cowboys
4 Good Hearted Woman
5 Trouble Man
6 Amanda
7 There Ain't No Good Chain Gang
8 Ring Of Fire
9 Folsom Prison Blues
10 Blue Eyes Crying In The Rain
11 Sunday Morning Coming Down
12 Help Me Make It Through The Night
13 The Best Of All Possible Worlds
14 Loving Her Was Easier
15 City Of New Orleans
16 Always On My Mind
17 Me And Bobby McGee
18 Silver Stallion
19 The Last Cowboy Song
20 Two Stories Wide
21 Living Legend
22 The Pilgrim: Chapter 33
23 They Killed Him
24 I Still Miss Someone
25 Ragged Old Flag
26 Ghost Riders In The Sky
27 Are You Sure Hank Done It This Way
28 Night Life
29 The King Is Gone (So Are You)
30 Desperados Waiting For A Train
31 Big River
32 A Boy Named Sue
33 Why Me
34 Luckenbach, Texas
35 On The Road Again
36 Closing Credits
Bonus Features:
Willie Nelson 2:44
Waylon Jennings 6:39
Kris Kristofferson 8:18
Johnny Cash 8:21
Odds and Ends 6:29
Notes:
Both the concert film and audio recordings have been remastered by Columbia/Legacy from the original master tapes. The concert film is remastered from a new scan of the original 35 mm film reels. The concert is previously unreleased in its unedited, full length form.

: Blu-ray
/: 1080p
: BDMV
: H.264
: PCM, AC3
: MPEG-4 AVC 22999 kbps / 1920*1080p / 23,976 fps / 16:9 / High Profile 4.1
#1: English LPCM 5.1 / 48 kHz / 6912 kbps / 24-bit
#2: English Dolby Digital 5.1 / 48 kHz / 640 kbps
#3: English LPCM 2.0 / 48 kHz / 2304 kbps / 24-bit
BDInfo
Disc Title:     The Highwaymen.Live.American Outlaws.2016.BD1080p
Disc Size: 41 558 510 758 bytes
Protection: AACS
BD-Java: Yes
BDInfo: 0.5.8
Notes:
BDINFO HOME:
Cinema Squid
http://www.cinemasquid.com/blu-ray/tools/bdinfo
INCLUDES FORUMS REPORT FOR:
AVS Forum Blu-ray Audio and Video Specifications Thread
http://www.avsforum.com/avs-vb/showthread.php?t=1155731
********************
PLAYLIST: 00800.MPLS
********************
<--- BEGIN FORUMS PASTE --->
:
Total   Video
Title                                                           Codec   Length  Movie Size      Disc Size       Bitrate Bitrate Main Audio Track                          Secondary Audio Track
-----                                                           ------  ------- --------------  --------------  ------- ------- ------------------                        ---------------------
00800.MPLS                                                      AVC     2:05:39 32630495232  41558510758  34,62   23,00   LPCM 2.0 2304Kbps (48kHz/24-bit)          LPCM 5.1 6912Kbps (48kHz/24-bit)
:
DISC INFO:
Disc Title:     The Highwaymen.Live.American Outlaws.2016.BD1080p
Disc Size:      41558510758 bytes
Protection:     AACS
BD-Java:        Yes
BDInfo:         0.5.8
PLAYLIST REPORT:
Name:                   00800.MPLS
Length:                 2:05:39.698 (h:m:s.ms)
Size:                   32630495232 bytes
Total Bitrate:          34,62 Mbps
VIDEO:
Codec                   Bitrate             Description
-----                   -------             -----------
MPEG-4 AVC Video        22999 kbps          1080p / 23,976 fps / 16:9 / High Profile 4.1
AUDIO:
Codec                           Language        Bitrate         Description
-----                           --------        -------         -----------
LPCM Audio                      English         2304 kbps       2.0 / 48 kHz / 2304 kbps / 24-bit
LPCM Audio                      English         6912 kbps       5.1 / 48 kHz / 6912 kbps / 24-bit
Dolby Digital Audio             English         640 kbps        5.1 / 48 kHz / 640 kbps
FILES:
Name            Time In         Length          Size            Total Bitrate
----            -------         ------          ----            -------------
00000.M2TS      0:00:00.000     2:05:39.698     32630495232  34623
CHAPTERS:
Number          Time In         Length          Avg Video Rate  Max 1-Sec Rate  Max 1-Sec Time  Max 5-Sec Rate  Max 5-Sec Time  Max 10Sec Rate  Max 10Sec Time  Avg Frame Size  Max Frame Size  Max Frame Time
------          -------         ------          --------------  --------------  --------------  --------------  --------------  --------------  --------------  --------------  --------------  --------------
1               0:00:00.000     0:00:33.033     27850 kbps     38267 kbps     00:00:23.648    35587 kbps     00:00:22.605    33876 kbps     00:00:22.772    145013 bytes   274062 bytes   00:00:21.730
2               0:00:33.033     0:02:55.175     22987 kbps     32674 kbps     00:00:44.586    28815 kbps     00:03:06.102    28232 kbps     00:03:02.724    119841 bytes   238029 bytes   00:03:14.027
3               0:03:28.208     0:02:28.148     24016 kbps     35117 kbps     00:04:07.580    30277 kbps     00:04:04.077    28636 kbps     00:03:59.113    125210 bytes   261426 bytes   00:05:54.020
4               0:05:56.356     0:02:49.878     24621 kbps     37656 kbps     00:07:16.144    30456 kbps     00:07:16.144    28653 kbps     00:07:16.144    128361 bytes   237024 bytes   00:07:43.421
5               0:08:46.234     0:03:00.471     24514 kbps     33084 kbps     00:10:22.413    30582 kbps     00:10:20.161    29285 kbps     00:10:21.162    127803 bytes   256675 bytes   00:10:27.335
6               0:11:46.706     0:02:34.237     24728 kbps     33771 kbps     00:13:32.770    30215 kbps     00:12:55.733    28996 kbps     00:12:53.355    128919 bytes   245933 bytes   00:12:55.775
7               0:14:20.943     0:03:23.119     22931 kbps     31914 kbps     00:15:36.810    30376 kbps     00:15:45.319    28743 kbps     00:15:30.763    119552 bytes   248815 bytes   00:15:45.361
8               0:17:44.063     0:03:35.214     22125 kbps     36053 kbps     00:18:57.177    34866 kbps     00:18:57.177    30579 kbps     00:18:53.507    115348 bytes   253418 bytes   00:18:57.219
9               0:21:19.278     0:03:04.183     20190 kbps     30822 kbps     00:23:21.566    28747 kbps     00:22:19.338    27313 kbps     00:22:15.584    105259 bytes   240123 bytes   00:22:20.630
10              0:24:23.462     0:02:59.512     24840 kbps     38689 kbps     00:25:50.924    34325 kbps     00:25:48.797    31120 kbps     00:25:42.374    129504 bytes   251368 bytes   00:25:49.965
11              0:27:22.974     0:05:34.000     23194 kbps     38483 kbps     00:28:53.523    33613 kbps     00:28:50.603    29642 kbps     00:28:32.961    120922 bytes   283965 bytes   00:28:53.732
12              0:32:56.975     0:04:24.263     23076 kbps     35770 kbps     00:37:13.397    30526 kbps     00:34:22.226    27837 kbps     00:34:17.472    120307 bytes   271661 bytes   00:36:20.178
13              0:37:21.238     0:03:50.230     22846 kbps     31132 kbps     00:38:04.365    29127 kbps     00:38:02.154    27846 kbps     00:38:01.904    119107 bytes   236667 bytes   00:39:20.441
14              0:41:11.469     0:05:12.311     23441 kbps     35342 kbps     00:43:01.537    33002 kbps     00:43:00.494    31512 kbps     00:42:56.949    122210 bytes   253789 bytes   00:46:15.063
15              0:46:23.781     0:05:05.305     23803 kbps     32610 kbps     00:46:33.916    31186 kbps     00:50:41.830    30679 kbps     00:50:40.454    124097 bytes   244755 bytes   00:49:35.138
16              0:51:29.086     0:02:50.170     22402 kbps     32404 kbps     00:53:06.975    30183 kbps     00:53:03.388    27642 kbps     00:53:04.347    116795 bytes   236647 bytes   00:51:45.435
17              0:54:19.256     0:04:56.796     23857 kbps     38310 kbps     00:59:03.998    33116 kbps     00:59:03.581    30525 kbps     00:59:03.581    124381 bytes   258761 bytes   00:59:04.624
18              0:59:16.052     0:03:14.694     24939 kbps     38071 kbps     01:01:07.538    34617 kbps     01:00:42.764    32916 kbps     01:00:38.551    130023 bytes   286743 bytes   01:01:07.580
19              1:02:30.747     0:03:03.016     24924 kbps     35538 kbps     01:02:52.477    34966 kbps     01:02:50.016    33648 kbps     01:02:46.554    129941 bytes   267202 bytes   01:03:24.091
20              1:05:33.763     0:02:35.321     21587 kbps     32486 kbps     01:06:53.801    28972 kbps     01:07:06.856    25340 kbps     01:07:06.772    112542 bytes   235165 bytes   01:06:34.365
21              1:08:09.085     0:04:03.534     22246 kbps     34792 kbps     01:09:04.515    29850 kbps     01:09:51.312    28051 kbps     01:09:50.895    115979 bytes   244714 bytes   01:09:05.307
22              1:12:12.619     0:02:50.086     23054 kbps     39139 kbps     01:12:36.143    34596 kbps     01:12:33.265    29804 kbps     01:12:28.344    120194 bytes   272524 bytes   01:12:36.685
23              1:15:02.706     0:03:27.999     25029 kbps     38065 kbps     01:18:19.945    35633 kbps     01:18:07.349    34156 kbps     01:18:03.845    130487 bytes   257995 bytes   01:15:22.684
24              1:18:30.706     0:05:03.302     19409 kbps     35430 kbps     01:19:13.123    33443 kbps     01:19:10.245    32178 kbps     01:19:07.159    101190 bytes   257239 bytes   01:19:14.040
25              1:23:34.009     0:02:39.159     17097 kbps     35072 kbps     01:25:57.026    33897 kbps     01:25:55.316    32876 kbps     01:25:54.899    89136 bytes    238008 bytes   01:25:57.944
26              1:26:13.168     0:03:18.197     24094 kbps     38551 kbps     01:27:13.478    36652 kbps     01:28:54.162    34074 kbps     01:27:53.726    125614 bytes   311303 bytes   01:29:21.105
27              1:29:31.366     0:02:41.953     27600 kbps     38529 kbps     01:31:12.425    37836 kbps     01:31:11.215    35509 kbps     01:31:09.088    143896 bytes   278529 bytes   01:31:49.378
28              1:32:13.319     0:04:35.400     26662 kbps     38993 kbps     01:33:34.567    36905 kbps     01:33:33.357    33379 kbps     01:33:14.171    139004 bytes   289406 bytes   01:33:41.657
29              1:36:48.719     0:03:29.292     23878 kbps     33982 kbps     01:40:06.917    31273 kbps     01:38:29.445    27702 kbps     01:38:24.523    124487 bytes   267531 bytes   01:40:06.959
30              1:40:18.012     0:04:45.284     22669 kbps     35232 kbps     01:41:47.726    32638 kbps     01:41:44.389    29357 kbps     01:41:25.996    118184 bytes   269454 bytes   01:41:44.515
31              1:45:03.297     0:04:23.554     23674 kbps     38344 kbps     01:46:32.177    36025 kbps     01:46:29.883    33291 kbps     01:46:25.837    123427 bytes   272270 bytes   01:46:30.759
32              1:49:26.851     0:04:22.971     21260 kbps     30517 kbps     01:49:59.509    29695 kbps     01:49:55.505    28412 kbps     01:49:52.002    110840 bytes   235652 bytes   01:49:52.043
33              1:53:49.823     0:03:44.724     23141 kbps     35535 kbps     01:54:42.667    34220 kbps     01:54:41.457    32199 kbps     01:54:36.494    120645 bytes   257993 bytes   01:54:45.795
34              1:57:34.547     0:03:25.079     24372 kbps     37095 kbps     02:00:15.249    34688 kbps     01:58:49.956    30514 kbps     01:58:46.702    127065 bytes   272380 bytes   02:00:15.917
35              2:00:59.627     0:03:15.361     20179 kbps     38212 kbps     02:01:41.961    35492 kbps     02:01:38.207    29937 kbps     02:01:36.497    105201 bytes   265981 bytes   02:03:32.154
36              2:04:14.989     0:01:24.709     4181 kbps      8681 kbps      02:05:33.567    7318 kbps      02:05:33.567    5635 kbps      02:05:28.604    21810 bytes    233891 bytes   02:04:32.006
STREAM DIAGNOSTICS:
File            PID             Type            Codec           Language                Seconds                 Bitrate                 Bytes           Packets
----            ---             ----            -----           --------                --------------          --------------          -------------   -----
00000.M2TS      4113 (0x1011)   0x1B            AVC                                     7539,532                23000                  21675990888  117909563
00000.M2TS      4352 (0x1100)   0x80            LPCM            eng (English)           7539,532                2310                   2177465360   12063520
00000.M2TS      4353 (0x1101)   0x80            LPCM            eng (English)           7539,532                6919                   6520332560   36190560
00000.M2TS      4354 (0x1102)   0x81            AC3             eng (English)           7539,532                640                     603176960     3534240
<---- END FORUMS PASTE ---->
QUICK SUMMARY:
Disc Title: The Highwaymen.Live.American Outlaws.2016.BD1080p
Disc Size: 41 558 510 758 bytes
Protection: AACS
BD-Java: Yes
Playlist: 00800.MPLS
Size: 32 630 495 232 bytes
Length: 2:05:39.698
Total Bitrate: 34,62 Mbps
Video: MPEG-4 AVC Video / 22999 kbps / 1080p / 23,976 fps / 16:9 / High Profile 4.1
Audio: English / LPCM Audio / 2.0 / 48 kHz / 2304 kbps / 24-bit
Audio: English / LPCM Audio / 5.1 / 48 kHz / 6912 kbps / 24-bit
Audio: English / Dolby Digital Audio / 5.1 / 48 kHz / 640 kbps
********************
PLAYLIST: 00250.MPLS
********************
<--- BEGIN FORUMS PASTE --->
:
Total   Video
Title                                                           Codec   Length  Movie Size      Disc Size       Bitrate Bitrate Main Audio Track                          Secondary Audio Track
-----                                                           ------  ------- --------------  --------------  ------- ------- ------------------                        ---------------------
00250.MPLS                                                      AVC     0:32:34 8456183808   41558510758  34,62   23,00   LPCM 2.0 2304Kbps (48kHz/24-bit)          LPCM 5.1 6912Kbps (48kHz/24-bit)
:
DISC INFO:
Disc Title:     The Highwaymen.Live.American Outlaws.2016.BD1080p
Disc Size:      41558510758 bytes
Protection:     AACS
BD-Java:        Yes
BDInfo:         0.5.8
PLAYLIST REPORT:
Name:                   00250.MPLS
Length:                 0:32:34.118 (h:m:s.ms)
Size:                   8456183808 bytes
Total Bitrate:          34,62 Mbps
VIDEO:
Codec                   Bitrate             Description
-----                   -------             -----------
MPEG-4 AVC Video        22997 kbps          1080p / 23,976 fps / 16:9 / High Profile 4.1
AUDIO:
Codec                           Language        Bitrate         Description
-----                           --------        -------         -----------
LPCM Audio                      English         2304 kbps       2.0 / 48 kHz / 2304 kbps / 24-bit
LPCM Audio                      English         6912 kbps       5.1 / 48 kHz / 6912 kbps / 24-bit
Dolby Digital Audio             English         640 kbps        5.1 / 48 kHz / 640 kbps
FILES:
Name            Time In         Length          Size            Total Bitrate
----            -------         ------          ----            -------------
00001.M2TS      0:00:00.000     0:02:44.163     710350848     34617
00012.M2TS      0:02:44.163     0:06:38.981     1726654464   34621
00013.M2TS      0:09:23.145     0:08:18.498     2157158400   34619
00014.M2TS      0:17:41.643     0:08:21.250     2168911872   34616
00015.M2TS      0:26:02.894     0:06:31.224     1693108224   34622
CHAPTERS:
Number          Time In         Length          Avg Video Rate  Max 1-Sec Rate  Max 1-Sec Time  Max 5-Sec Rate  Max 5-Sec Time  Max 10Sec Rate  Max 10Sec Time  Avg Frame Size  Max Frame Size  Max Frame Time
------          -------         ------          --------------  --------------  --------------  --------------  --------------  --------------  --------------  --------------  --------------  --------------
1               0:00:00.000     0:02:44.163     22996 kbps     28681 kbps     00:02:10.421    28221 kbps     00:02:06.417    27901 kbps     00:02:01.913    119859 bytes   470938 bytes   00:02:43.163
2               0:02:44.163     0:06:38.981     22999 kbps     27025 kbps     00:02:45.415    25578 kbps     00:02:45.206    24652 kbps     00:02:45.206    119905 bytes   242346 bytes   00:02:45.165
3               0:09:23.145     0:08:18.497     22996 kbps     25794 kbps     00:10:32.381    25039 kbps     00:11:19.720    24744 kbps     00:11:19.637    119891 bytes   285330 bytes   00:17:40.642
4               0:17:41.643     0:08:21.250     22994 kbps     25018 kbps     00:25:15.555    24482 kbps     00:25:12.093    24121 kbps     00:25:07.047    119879 bytes   198114 bytes   00:26:02.811
5               0:26:02.894     0:06:31.224     22999 kbps     28362 kbps     00:31:54.996    27744 kbps     00:31:53.286    27594 kbps     00:31:53.411    119920 bytes   402604 bytes   00:32:30.948
STREAM DIAGNOSTICS:
File            PID             Type            Codec           Language                Seconds                 Bitrate                 Bytes           Packets
----            ---             ----            -----           --------                --------------          --------------          -------------   -----
00001.M2TS      4113 (0x1011)   0x1B            AVC                                     163,997                 23019                  471885144     2566885
00001.M2TS      4352 (0x1100)   0x80            LPCM            eng (English)           163,997                 2312                   47399300      262600
00001.M2TS      4353 (0x1101)   0x80            LPCM            eng (English)           163,997                 6924                   141935300     787800
00001.M2TS      4354 (0x1102)   0x81            AC3             eng (English)           163,997                 641                     13130240      76935
00012.M2TS      4113 (0x1011)   0x1B            AVC                                     398,815                 23008                  1147015436   6239321
00012.M2TS      4352 (0x1100)   0x80            LPCM            eng (English)           398,815                 2311                   115215316     638312
00012.M2TS      4353 (0x1101)   0x80            LPCM            eng (English)           398,815                 6921                   345007636     1914936
00012.M2TS      4354 (0x1102)   0x81            AC3             eng (English)           398,815                 640                     31915520      187005
00013.M2TS      4113 (0x1011)   0x1B            AVC                                     498,331                 23004                  1432934462   7794657
00013.M2TS      4352 (0x1100)   0x80            LPCM            eng (English)           498,331                 2311                   143955248     797536
00013.M2TS      4353 (0x1101)   0x80            LPCM            eng (English)           498,331                 6920                   431068208     2392608
00013.M2TS      4354 (0x1102)   0x81            AC3             eng (English)           498,331                 640                     39877120      233655
00014.M2TS      4113 (0x1011)   0x1B            AVC                                     501,084                 23001                  1440701317   7836911
00014.M2TS      4352 (0x1100)   0x80            LPCM            eng (English)           501,084                 2311                   144749448     801936
00014.M2TS      4353 (0x1101)   0x80            LPCM            eng (English)           501,084                 6920                   433446408     2405808
00014.M2TS      4354 (0x1102)   0x81            AC3             eng (English)           501,084                 640                     40097280      234945
00015.M2TS      4113 (0x1011)   0x1B            AVC                                     391,057                 23009                  1124734077   6118182
00015.M2TS      4352 (0x1100)   0x80            LPCM            eng (English)           391,057                 2311                   112974228     625896
00015.M2TS      4353 (0x1101)   0x80            LPCM            eng (English)           391,057                 6921                   338296788     1877688
00015.M2TS      4354 (0x1102)   0x81            AC3             eng (English)           391,057                 640                     31296000      183375
<---- END FORUMS PASTE ---->
QUICK SUMMARY:
Disc Title: The Highwaymen.Live.American Outlaws.2016.BD1080p
Disc Size: 41 558 510 758 bytes
Protection: AACS
BD-Java: Yes
Playlist: 00250.MPLS
Size: 8 456 183 808 bytes
Length: 0:32:34.118
Total Bitrate: 34,62 Mbps
Video: MPEG-4 AVC Video / 22997 kbps / 1080p / 23,976 fps / 16:9 / High Profile 4.1
Audio: English / LPCM Audio / 2.0 / 48 kHz / 2304 kbps / 24-bit
Audio: English / LPCM Audio / 5.1 / 48 kHz / 6912 kbps / 24-bit
Audio: English / Dolby Digital Audio / 5.1 / 48 kHz / 640 kbps
********************
PLAYLIST: 00254.MPLS
********************
<--- BEGIN FORUMS PASTE --->
:
Total   Video
Title                                                           Codec   Length  Movie Size      Disc Size       Bitrate Bitrate Main Audio Track                          Secondary Audio Track
-----                                                           ------  ------- --------------  --------------  ------- ------- ------------------                        ---------------------
00254.MPLS                                                      AVC     0:08:21 2168911872   41558510758  34,62   22,99   LPCM 2.0 2304Kbps (48kHz/24-bit)          LPCM 5.1 6912Kbps (48kHz/24-bit)
:
DISC INFO:
Disc Title:     The Highwaymen.Live.American Outlaws.2016.BD1080p
Disc Size:      41558510758 bytes
Protection:     AACS
BD-Java:        Yes
BDInfo:         0.5.8
PLAYLIST REPORT:
Name:                   00254.MPLS
Length:                 0:08:21.250 (h:m:s.ms)
Size:                   2168911872 bytes
Total Bitrate:          34,62 Mbps
VIDEO:
Codec                   Bitrate             Description
-----                   -------             -----------
MPEG-4 AVC Video        22994 kbps          1080p / 23,976 fps / 16:9 / High Profile 4.1
AUDIO:
Codec                           Language        Bitrate         Description
-----                           --------        -------         -----------
LPCM Audio                      English         2304 kbps       2.0 / 48 kHz / 2304 kbps / 24-bit
LPCM Audio                      English         6912 kbps       5.1 / 48 kHz / 6912 kbps / 24-bit
Dolby Digital Audio             English         640 kbps        5.1 / 48 kHz / 640 kbps
FILES:
Name            Time In         Length          Size            Total Bitrate
----            -------         ------          ----            -------------
00014.M2TS      0:00:00.000     0:08:21.250     2168911872   34616
CHAPTERS:
Number          Time In         Length          Avg Video Rate  Max 1-Sec Rate  Max 1-Sec Time  Max 5-Sec Rate  Max 5-Sec Time  Max 10Sec Rate  Max 10Sec Time  Avg Frame Size  Max Frame Size  Max Frame Time
------          -------         ------          --------------  --------------  --------------  --------------  --------------  --------------  --------------  --------------  --------------  --------------
1               0:00:00.000     0:08:21.250     22994 kbps     25018 kbps     00:07:33.911    24482 kbps     00:07:30.450    24121 kbps     00:07:25.403    119879 bytes   198114 bytes   00:08:21.167
STREAM DIAGNOSTICS:
File            PID             Type            Codec           Language                Seconds                 Bitrate                 Bytes           Packets
----            ---             ----            -----           --------                --------------          --------------          -------------   -----
00014.M2TS      4113 (0x1011)   0x1B            AVC                                     501,084                 23001                  1440701317   7836911
00014.M2TS      4352 (0x1100)   0x80            LPCM            eng (English)           501,084                 2311                   144749448     801936
00014.M2TS      4353 (0x1101)   0x80            LPCM            eng (English)           501,084                 6920                   433446408     2405808
00014.M2TS      4354 (0x1102)   0x81            AC3             eng (English)           501,084                 640                     40097280      234945
<---- END FORUMS PASTE ---->
QUICK SUMMARY:
Disc Title: The Highwaymen.Live.American Outlaws.2016.BD1080p
Disc Size: 41 558 510 758 bytes
Protection: AACS
BD-Java: Yes
Playlist: 00254.MPLS
Size: 2 168 911 872 bytes
Length: 0:08:21.250
Total Bitrate: 34,62 Mbps
Video: MPEG-4 AVC Video / 22994 kbps / 1080p / 23,976 fps / 16:9 / High Profile 4.1
Audio: English / LPCM Audio / 2.0 / 48 kHz / 2304 kbps / 24-bit
Audio: English / LPCM Audio / 5.1 / 48 kHz / 6912 kbps / 24-bit
Audio: English / Dolby Digital Audio / 5.1 / 48 kHz / 640 kbps
********************
PLAYLIST: 00253.MPLS
********************
<--- BEGIN FORUMS PASTE --->
:
Total   Video
Title                                                           Codec   Length  Movie Size      Disc Size       Bitrate Bitrate Main Audio Track                          Secondary Audio Track
-----                                                           ------  ------- --------------  --------------  ------- ------- ------------------                        ---------------------
00253.MPLS                                                      AVC     0:08:18 2157158400   41558510758  34,62   23,00   LPCM 2.0 2304Kbps (48kHz/24-bit)          LPCM 5.1 6912Kbps (48kHz/24-bit)
:
DISC INFO:
Disc Title:     The Highwaymen.Live.American Outlaws.2016.BD1080p
Disc Size:      41558510758 bytes
Protection:     AACS
BD-Java:        Yes
BDInfo:         0.5.8
PLAYLIST REPORT:
Name:                   00253.MPLS
Length:                 0:08:18.498 (h:m:s.ms)
Size:                   2157158400 bytes
Total Bitrate:          34,62 Mbps
VIDEO:
Codec                   Bitrate             Description
-----                   -------             -----------
MPEG-4 AVC Video        22996 kbps          1080p / 23,976 fps / 16:9 / High Profile 4.1
AUDIO:
Codec                           Language        Bitrate         Description
-----                           --------        -------         -----------
LPCM Audio                      English         2304 kbps       2.0 / 48 kHz / 2304 kbps / 24-bit
LPCM Audio                      English         6912 kbps       5.1 / 48 kHz / 6912 kbps / 24-bit
Dolby Digital Audio             English         640 kbps        5.1 / 48 kHz / 640 kbps
FILES:
Name            Time In         Length          Size            Total Bitrate
----            -------         ------          ----            -------------
00013.M2TS      0:00:00.000     0:08:18.498     2157158400   34619
CHAPTERS:
Number          Time In         Length          Avg Video Rate  Max 1-Sec Rate  Max 1-Sec Time  Max 5-Sec Rate  Max 5-Sec Time  Max 10Sec Rate  Max 10Sec Time  Avg Frame Size  Max Frame Size  Max Frame Time
------          -------         ------          --------------  --------------  --------------  --------------  --------------  --------------  --------------  --------------  --------------  --------------
1               0:00:00.000     0:08:18.498     22996 kbps     25794 kbps     00:01:09.235    25039 kbps     00:01:56.574    24744 kbps     00:01:56.491    119891 bytes   285330 bytes   00:08:17.497
STREAM DIAGNOSTICS:
File            PID             Type            Codec           Language                Seconds                 Bitrate                 Bytes           Packets
----            ---             ----            -----           --------                --------------          --------------          -------------   -----
00013.M2TS      4113 (0x1011)   0x1B            AVC                                     498,331                 23004                  1432934462   7794657
00013.M2TS      4352 (0x1100)   0x80            LPCM            eng (English)           498,331                 2311                   143955248     797536
00013.M2TS      4353 (0x1101)   0x80            LPCM            eng (English)           498,331                 6920                   431068208     2392608
00013.M2TS      4354 (0x1102)   0x81            AC3             eng (English)           498,331                 640                     39877120      233655
<---- END FORUMS PASTE ---->
QUICK SUMMARY:
Disc Title: The Highwaymen.Live.American Outlaws.2016.BD1080p
Disc Size: 41 558 510 758 bytes
Protection: AACS
BD-Java: Yes
Playlist: 00253.MPLS
Size: 2 157 158 400 bytes
Length: 0:08:18.498
Total Bitrate: 34,62 Mbps
Video: MPEG-4 AVC Video / 22996 kbps / 1080p / 23,976 fps / 16:9 / High Profile 4.1
Audio: English / LPCM Audio / 2.0 / 48 kHz / 2304 kbps / 24-bit
Audio: English / LPCM Audio / 5.1 / 48 kHz / 6912 kbps / 24-bit
Audio: English / Dolby Digital Audio / 5.1 / 48 kHz / 640 kbps
********************
PLAYLIST: 00252.MPLS
********************
<--- BEGIN FORUMS PASTE --->
:
Total   Video
Title                                                           Codec   Length  Movie Size      Disc Size       Bitrate Bitrate Main Audio Track                          Secondary Audio Track
-----                                                           ------  ------- --------------  --------------  ------- ------- ------------------                        ---------------------
00252.MPLS                                                      AVC     0:06:38 1726654464   41558510758  34,62   23,00   LPCM 2.0 2304Kbps (48kHz/24-bit)          LPCM 5.1 6912Kbps (48kHz/24-bit)
:
DISC INFO:
Disc Title:     The Highwaymen.Live.American Outlaws.2016.BD1080p
Disc Size:      41558510758 bytes
Protection:     AACS
BD-Java:        Yes
BDInfo:         0.5.8
PLAYLIST REPORT:
Name:                   00252.MPLS
Length:                 0:06:38.981 (h:m:s.ms)
Size:                   1726654464 bytes
Total Bitrate:          34,62 Mbps
VIDEO:
Codec                   Bitrate             Description
-----                   -------             -----------
MPEG-4 AVC Video        22999 kbps          1080p / 23,976 fps / 16:9 / High Profile 4.1
AUDIO:
Codec                           Language        Bitrate         Description
-----                           --------        -------         -----------
LPCM Audio                      English         2304 kbps       2.0 / 48 kHz / 2304 kbps / 24-bit
LPCM Audio                      English         6912 kbps       5.1 / 48 kHz / 6912 kbps / 24-bit
Dolby Digital Audio             English         640 kbps        5.1 / 48 kHz / 640 kbps
FILES:
Name            Time In         Length          Size            Total Bitrate
----            -------         ------          ----            -------------
00012.M2TS      0:00:00.000     0:06:38.981     1726654464   34621
CHAPTERS:
Number          Time In         Length          Avg Video Rate  Max 1-Sec Rate  Max 1-Sec Time  Max 5-Sec Rate  Max 5-Sec Time  Max 10Sec Rate  Max 10Sec Time  Avg Frame Size  Max Frame Size  Max Frame Time
------          -------         ------          --------------  --------------  --------------  --------------  --------------  --------------  --------------  --------------  --------------  --------------
1               0:00:00.000     0:06:38.981     22999 kbps     27025 kbps     00:00:01.251    25578 kbps     00:00:01.042    24652 kbps     00:00:01.042    119905 bytes   242346 bytes   00:00:01.001
STREAM DIAGNOSTICS:
File            PID             Type            Codec           Language                Seconds                 Bitrate                 Bytes           Packets
----            ---             ----            -----           --------                --------------          --------------          -------------   -----
00012.M2TS      4113 (0x1011)   0x1B            AVC                                     398,815                 23008                  1147015436   6239321
00012.M2TS      4352 (0x1100)   0x80            LPCM            eng (English)           398,815                 2311                   115215316     638312
00012.M2TS      4353 (0x1101)   0x80            LPCM            eng (English)           398,815                 6921                   345007636     1914936
00012.M2TS      4354 (0x1102)   0x81            AC3             eng (English)           398,815                 640                     31915520      187005
<---- END FORUMS PASTE ---->
QUICK SUMMARY:
Disc Title: The Highwaymen.Live.American Outlaws.2016.BD1080p
Disc Size: 41 558 510 758 bytes
Protection: AACS
BD-Java: Yes
Playlist: 00252.MPLS
Size: 1 726 654 464 bytes
Length: 0:06:38.981
Total Bitrate: 34,62 Mbps
Video: MPEG-4 AVC Video / 22999 kbps / 1080p / 23,976 fps / 16:9 / High Profile 4.1
Audio: English / LPCM Audio / 2.0 / 48 kHz / 2304 kbps / 24-bit
Audio: English / LPCM Audio / 5.1 / 48 kHz / 6912 kbps / 24-bit
Audio: English / Dolby Digital Audio / 5.1 / 48 kHz / 640 kbps
********************
PLAYLIST: 00255.MPLS
********************
<--- BEGIN FORUMS PASTE --->
:
Total   Video
Title                                                           Codec   Length  Movie Size      Disc Size       Bitrate Bitrate Main Audio Track                          Secondary Audio Track
-----                                                           ------  ------- --------------  --------------  ------- ------- ------------------                        ---------------------
00255.MPLS                                                      AVC     0:06:31 1693108224   41558510758  34,62   23,00   LPCM 2.0 2304Kbps (48kHz/24-bit)          LPCM 5.1 6912Kbps (48kHz/24-bit)
:
DISC INFO:
Disc Title:     The Highwaymen.Live.American Outlaws.2016.BD1080p
Disc Size:      41558510758 bytes
Protection:     AACS
BD-Java:        Yes
BDInfo:         0.5.8
PLAYLIST REPORT:
Name:                   00255.MPLS
Length:                 0:06:31.224 (h:m:s.ms)
Size:                   1693108224 bytes
Total Bitrate:          34,62 Mbps
VIDEO:
Codec                   Bitrate             Description
-----                   -------             -----------
MPEG-4 AVC Video        22999 kbps          1080p / 23,976 fps / 16:9 / High Profile 4.1
AUDIO:
Codec                           Language        Bitrate         Description
-----                           --------        -------         -----------
LPCM Audio                      English         2304 kbps       2.0 / 48 kHz / 2304 kbps / 24-bit
LPCM Audio                      English         6912 kbps       5.1 / 48 kHz / 6912 kbps / 24-bit
Dolby Digital Audio             English         640 kbps        5.1 / 48 kHz / 640 kbps
FILES:
Name            Time In         Length          Size            Total Bitrate
----            -------         ------          ----            -------------
00015.M2TS      0:00:00.000     0:06:31.224     1693108224   34622
CHAPTERS:
Number          Time In         Length          Avg Video Rate  Max 1-Sec Rate  Max 1-Sec Time  Max 5-Sec Rate  Max 5-Sec Time  Max 10Sec Rate  Max 10Sec Time  Avg Frame Size  Max Frame Size  Max Frame Time
------          -------         ------          --------------  --------------  --------------  --------------  --------------  --------------  --------------  --------------  --------------  --------------
1               0:00:00.000     0:06:31.224     22999 kbps     28362 kbps     00:05:52.101    27744 kbps     00:05:50.391    27594 kbps     00:05:50.516    119908 bytes   402604 bytes   00:06:28.054
STREAM DIAGNOSTICS:
File            PID             Type            Codec           Language                Seconds                 Bitrate                 Bytes           Packets
----            ---             ----            -----           --------                --------------          --------------          -------------   -----
00015.M2TS      4113 (0x1011)   0x1B            AVC                                     391,057                 23009                  1124734077   6118182
00015.M2TS      4352 (0x1100)   0x80            LPCM            eng (English)           391,057                 2311                   112974228     625896
00015.M2TS      4353 (0x1101)   0x80            LPCM            eng (English)           391,057                 6921                   338296788     1877688
00015.M2TS      4354 (0x1102)   0x81            AC3             eng (English)           391,057                 640                     31296000      183375
<---- END FORUMS PASTE ---->
QUICK SUMMARY:
Disc Title: The Highwaymen.Live.American Outlaws.2016.BD1080p
Disc Size: 41 558 510 758 bytes
Protection: AACS
BD-Java: Yes
Playlist: 00255.MPLS
Size: 1 693 108 224 bytes
Length: 0:06:31.224
Total Bitrate: 34,62 Mbps
Video: MPEG-4 AVC Video / 22999 kbps / 1080p / 23,976 fps / 16:9 / High Profile 4.1
Audio: English / LPCM Audio / 2.0 / 48 kHz / 2304 kbps / 24-bit
Audio: English / LPCM Audio / 5.1 / 48 kHz / 6912 kbps / 24-bit
Audio: English / Dolby Digital Audio / 5.1 / 48 kHz / 640 kbps
********************
PLAYLIST: 00251.MPLS
********************
<--- BEGIN FORUMS PASTE --->
:
Total   Video
Title                                                           Codec   Length  Movie Size      Disc Size       Bitrate Bitrate Main Audio Track                          Secondary Audio Track
-----                                                           ------  ------- --------------  --------------  ------- ------- ------------------                        ---------------------
00251.MPLS                                                      AVC     0:02:44 710350848     41558510758  34,62   23,00   LPCM 2.0 2304Kbps (48kHz/24-bit)          LPCM 5.1 6912Kbps (48kHz/24-bit)
:
DISC INFO:
Disc Title:     The Highwaymen.Live.American Outlaws.2016.BD1080p
Disc Size:      41558510758 bytes
Protection:     AACS
BD-Java:        Yes
BDInfo:         0.5.8
PLAYLIST REPORT:
Name:                   00251.MPLS
Length:                 0:02:44.163 (h:m:s.ms)
Size:                   710350848 bytes
Total Bitrate:          34,62 Mbps
VIDEO:
Codec                   Bitrate             Description
-----                   -------             -----------
MPEG-4 AVC Video        22996 kbps          1080p / 23,976 fps / 16:9 / High Profile 4.1
AUDIO:
Codec                           Language        Bitrate         Description
-----                           --------        -------         -----------
LPCM Audio                      English         2304 kbps       2.0 / 48 kHz / 2304 kbps / 24-bit
LPCM Audio                      English         6912 kbps       5.1 / 48 kHz / 6912 kbps / 24-bit
Dolby Digital Audio             English         640 kbps        5.1 / 48 kHz / 640 kbps
FILES:
Name            Time In         Length          Size            Total Bitrate
----            -------         ------          ----            -------------
00001.M2TS      0:00:00.000     0:02:44.163     710350848     34617
CHAPTERS:
Number          Time In         Length          Avg Video Rate  Max 1-Sec Rate  Max 1-Sec Time  Max 5-Sec Rate  Max 5-Sec Time  Max 10Sec Rate  Max 10Sec Time  Avg Frame Size  Max Frame Size  Max Frame Time
------          -------         ------          --------------  --------------  --------------  --------------  --------------  --------------  --------------  --------------  --------------  --------------
1               0:00:00.000     0:02:44.163     22996 kbps     28681 kbps     00:02:10.421    28221 kbps     00:02:06.417    27901 kbps     00:02:01.913    119890 bytes   470938 bytes   00:02:43.163
STREAM DIAGNOSTICS:
File            PID             Type            Codec           Language                Seconds                 Bitrate                 Bytes           Packets
----            ---             ----            -----           --------                --------------          --------------          -------------   -----
00001.M2TS      4113 (0x1011)   0x1B            AVC                                     163,997                 23019                  471885144     2566885
00001.M2TS      4352 (0x1100)   0x80            LPCM            eng (English)           163,997                 2312                   47399300      262600
00001.M2TS      4353 (0x1101)   0x80            LPCM            eng (English)           163,997                 6924                   141935300     787800
00001.M2TS      4354 (0x1102)   0x81            AC3             eng (English)           163,997                 641                     13130240      76935
<---- END FORUMS PASTE ---->
QUICK SUMMARY:
Disc Title: The Highwaymen.Live.American Outlaws.2016.BD1080p
Disc Size: 41 558 510 758 bytes
Protection: AACS
BD-Java: Yes
Playlist: 00251.MPLS
Size: 710 350 848 bytes
Length: 0:02:44.163
Total Bitrate: 34,62 Mbps
Video: MPEG-4 AVC Video / 22996 kbps / 1080p / 23,976 fps / 16:9 / High Profile 4.1
Audio: English / LPCM Audio / 2.0 / 48 kHz / 2304 kbps / 24-bit
Audio: English / LPCM Audio / 5.1 / 48 kHz / 6912 kbps / 24-bit
Audio: English / Dolby Digital Audio / 5.1 / 48 kHz / 640 kbps
********************
PLAYLIST: 00050.MPLS
********************
<--- BEGIN FORUMS PASTE --->
:
Total   Video
Title                                                           Codec   Length  Movie Size      Disc Size       Bitrate Bitrate Main Audio Track                          Secondary Audio Track
-----                                                           ------  ------- --------------  --------------  ------- ------- ------------------                        ---------------------
00050.MPLS                                                      AVC     0:00:36 125313024     41558510758  27,51   24,53   LPCM 2.0 1536Kbps (48kHz/16-bit)
:
DISC INFO:
Disc Title:     The Highwaymen.Live.American Outlaws.2016.BD1080p
Disc Size:      41558510758 bytes
Protection:     AACS
BD-Java:        Yes
BDInfo:         0.5.8
PLAYLIST REPORT:
Name:                   00050.MPLS
Length:                 0:00:36.436 (h:m:s.ms)
Size:                   125313024 bytes
Total Bitrate:          27,51 Mbps
VIDEO:
Codec                   Bitrate             Description
-----                   -------             -----------
MPEG-4 AVC Video        24526 kbps          1080i / 29,970 fps / 16:9 / High Profile 4.1
AUDIO:
Codec                           Language        Bitrate         Description
-----                           --------        -------         -----------
LPCM Audio                      English         1536 kbps       2.0 / 48 kHz / 1536 kbps / 16-bit
FILES:
Name            Time In         Length          Size            Total Bitrate
----            -------         ------          ----            -------------
00002.M2TS      0:00:00.000     0:00:21.021     55265280      21032
00010.M2TS      0:00:21.021     0:00:15.415     70047744      36352
CHAPTERS:
Number          Time In         Length          Avg Video Rate  Max 1-Sec Rate  Max 1-Sec Time  Max 5-Sec Rate  Max 5-Sec Time  Max 10Sec Rate  Max 10Sec Time  Avg Frame Size  Max Frame Size  Max Frame Time
------          -------         ------          --------------  --------------  --------------  --------------  --------------  --------------  --------------  --------------  --------------  --------------
1               0:00:00.000     0:00:36.436     24526 kbps     42017 kbps     00:00:09.442    38959 kbps     00:00:21.521    35987 kbps     00:00:21.454    102293 bytes   302142 bytes   00:00:26.026
STREAM DIAGNOSTICS:
File            PID             Type            Codec           Language                Seconds                 Bitrate                 Bytes           Packets
----            ---             ----            -----           --------                --------------          --------------          -------------   -----
00002.M2TS      4113 (0x1011)   0x1B            AVC                                     20,888                  18432                  48123727      261897
00002.M2TS      4352 (0x1100)   0x80            LPCM            eng (English)           20,888                  1553                   4053620       25230
00010.M2TS      4113 (0x1011)   0x1B            AVC                                     15,282                  33284                  63580449      345816
00010.M2TS      4352 (0x1100)   0x80            LPCM            eng (English)           15,282                  1556                   2972976       18504
<---- END FORUMS PASTE ---->
QUICK SUMMARY:
Disc Title: The Highwaymen.Live.American Outlaws.2016.BD1080p
Disc Size: 41 558 510 758 bytes
Protection: AACS
BD-Java: Yes
Playlist: 00050.MPLS
Size: 125 313 024 bytes
Length: 0:00:36.436
Total Bitrate: 27,51 Mbps
Video: MPEG-4 AVC Video / 24526 kbps / 1080i / 29,970 fps / 16:9 / High Profile 4.1
Audio: English / LPCM Audio / 2.0 / 48 kHz / 1536 kbps / 16-bit
********************
PLAYLIST: 00350.MPLS
********************
<--- BEGIN FORUMS PASTE --->
:
Total   Video
Title                                                           Codec   Length  Movie Size      Disc Size       Bitrate Bitrate Main Audio Track                          Secondary Audio Track
-----                                                           ------  ------- --------------  --------------  ------- ------- ------------------                        ---------------------
00350.MPLS                                                      AVC     0:00:21 55265280      41558510758  21,03   18,31   LPCM 2.0 1536Kbps (48kHz/16-bit)
:
DISC INFO:
Disc Title:     The Highwaymen.Live.American Outlaws.2016.BD1080p
Disc Size:      41558510758 bytes
Protection:     AACS
BD-Java:        Yes
BDInfo:         0.5.8
PLAYLIST REPORT:
Name:                   00350.MPLS
Length:                 0:00:21.021 (h:m:s.ms)
Size:                   55265280 bytes
Total Bitrate:          21,03 Mbps
VIDEO:
Codec                   Bitrate             Description
-----                   -------             -----------
MPEG-4 AVC Video        18315 kbps          1080i / 29,970 fps / 16:9 / High Profile 4.1
AUDIO:
Codec                           Language        Bitrate         Description
-----                           --------        -------         -----------
LPCM Audio                      English         1536 kbps       2.0 / 48 kHz / 1536 kbps / 16-bit
FILES:
Name            Time In         Length          Size            Total Bitrate
----            -------         ------          ----            -------------
00002.M2TS      0:00:00.000     0:00:21.021     55265280      21032
CHAPTERS:
Number          Time In         Length          Avg Video Rate  Max 1-Sec Rate  Max 1-Sec Time  Max 5-Sec Rate  Max 5-Sec Time  Max 10Sec Rate  Max 10Sec Time  Avg Frame Size  Max Frame Size  Max Frame Time
------          -------         ------          --------------  --------------  --------------  --------------  --------------  --------------  --------------  --------------  --------------  --------------
1               0:00:00.000     0:00:21.021     18315 kbps     42017 kbps     00:00:09.442    33497 kbps     00:00:06.139    26813 kbps     00:00:06.806    76387 bytes    294897 bytes   00:00:09.009
STREAM DIAGNOSTICS:
File            PID             Type            Codec           Language                Seconds                 Bitrate                 Bytes           Packets
----            ---             ----            -----           --------                --------------          --------------          -------------   -----
00002.M2TS      4113 (0x1011)   0x1B            AVC                                     20,888                  18432                  48123727      261897
00002.M2TS      4352 (0x1100)   0x80            LPCM            eng (English)           20,888                  1553                   4053620       25230
<---- END FORUMS PASTE ---->
QUICK SUMMARY:
Disc Title: The Highwaymen.Live.American Outlaws.2016.BD1080p
Disc Size: 41 558 510 758 bytes
Protection: AACS
BD-Java: Yes
Playlist: 00350.MPLS
Size: 55 265 280 bytes
Length: 0:00:21.021
Total Bitrate: 21,03 Mbps
Video: MPEG-4 AVC Video / 18315 kbps / 1080i / 29,970 fps / 16:9 / High Profile 4.1
Audio: English / LPCM Audio / 2.0 / 48 kHz / 1536 kbps / 16-bit
********************
PLAYLIST: 00080.MPLS
********************
<--- BEGIN FORUMS PASTE --->
:
Total   Video
Title                                                           Codec   Length  Movie Size      Disc Size       Bitrate Bitrate Main Audio Track                          Secondary Audio Track
-----                                                           ------  ------- --------------  --------------  ------- ------- ------------------                        ---------------------
00080.MPLS                                                      AVC     0:00:33 17756160      41558510758  4,30    2,28    LPCM 2.0 1536Kbps (48kHz/16-bit)
:
DISC INFO:
Disc Title:     The Highwaymen.Live.American Outlaws.2016.BD1080p
Disc Size:      41558510758 bytes
Protection:     AACS
BD-Java:        Yes
BDInfo:         0.5.8
PLAYLIST REPORT:
Name:                   00080.MPLS
Length:                 0:00:33.033 (h:m:s.ms)
Size:                   17756160 bytes
Total Bitrate:          4,30 Mbps
VIDEO:
Codec                   Bitrate             Description
-----                   -------             -----------
MPEG-4 AVC Video        2277 kbps           1080i / 29,970 fps / 16:9 / High Profile 4.1
AUDIO:
Codec                           Language        Bitrate         Description
-----                           --------        -------         -----------
LPCM Audio                      English         1536 kbps       2.0 / 48 kHz / 1536 kbps / 16-bit
FILES:
Name            Time In         Length          Size            Total Bitrate
----            -------         ------          ----            -------------
00008.M2TS      0:00:00.000     0:00:33.033     17756160      4300
CHAPTERS:
Number          Time In         Length          Avg Video Rate  Max 1-Sec Rate  Max 1-Sec Time  Max 5-Sec Rate  Max 5-Sec Time  Max 10Sec Rate  Max 10Sec Time  Avg Frame Size  Max Frame Size  Max Frame Time
------          -------         ------          --------------  --------------  --------------  --------------  --------------  --------------  --------------  --------------  --------------  --------------
1               0:00:00.000     0:00:33.033     2277 kbps      8576 kbps      00:00:22.622    3835 kbps      00:00:21.020    3350 kbps      00:00:22.522    9497 bytes     183505 bytes   00:00:30.030
STREAM DIAGNOSTICS:
File            PID             Type            Codec           Language                Seconds                 Bitrate                 Bytes           Packets
----            ---             ----            -----           --------                --------------          --------------          -------------   -----
00008.M2TS      4113 (0x1011)   0x1B            AVC                                     32,900                  2286                   9402394       51710
00008.M2TS      4352 (0x1100)   0x80            LPCM            eng (English)           32,900                  1549                   6369148       39642
<---- END FORUMS PASTE ---->
QUICK SUMMARY:
Disc Title: The Highwaymen.Live.American Outlaws.2016.BD1080p
Disc Size: 41 558 510 758 bytes
Protection: AACS
BD-Java: Yes
Playlist: 00080.MPLS
Size: 17 756 160 bytes
Length: 0:00:33.033
Total Bitrate: 4,30 Mbps
Video: MPEG-4 AVC Video / 2277 kbps / 1080i / 29,970 fps / 16:9 / High Profile 4.1
Audio: English / LPCM Audio / 2.0 / 48 kHz / 1536 kbps / 16-bit
Download
.torrent
  ·   torrent ()
, -, -
[]  [] 

aljus

: 8 7

: 27


aljus · 20--17 10:07 ( 4 )

[] 

anbelk27
HQ . .
[]  [] 

sh00r00p1

: 10 7

: 61


sh00r00p1 · 20--17 23:06 ( 12 )

[] 

! !! ! - !!!
[]  [] 

aljus

: 8 7

: 27


aljus · 22--17 16:05 ( 1 16 )

[] 

anbelk27
,
, , BDRip The Highwaymen - Live: American Outlaws. .
aljus
[]  [] 

anbelk27

Admin

: 8 5

: 4279

anbelk27 · 25--17 12:00 ( 2 19 )

[] 

aljus
, ,
[]  [] 

12071969

: 5 3

: 70


12071969 · 03--17 08:54 ( 2 8 )

[] 

anbelk27
! -
[]  [] 

HasseM

: 7 6

: 10


HasseM · 17--17 19:15 ( 14 , . 17--17 19:15)

[] 

Seeed please
Seeed please
[]  [] 
 
Loading...
Error