Адрес РуТрекера для пользователей РФ - MainTracker.org

Расскажи друзьям:  

(Folk / Celtic / Кельтская арфа) Gwenael Kerleo (Гвенаэль Керлео) - 2009, FLAC (image+.cue), lossless

Страницы:  1

Ответить
Автор
Сообщение

Elmiril

Стаж: 8 лет

Сообщений: 10

Elmiril · 24-Мар-10 17:14 (7 лет 5 месяцев назад, ред. 10-Ноя-11 22:45)

Gwenael Kerleo (Гвенаэль Керлео)
Жанр: Кельтская арфа
Год выпуска диска: 2009
Название альбома: Pevar
Производитель диска: Франция
Аудио кодек: FLAC
Тип рипа: image+.cue
Битрейт аудио: lossless
Продолжительность: 44 мин 02,28 сек
Происхождение: Рип со своего диска
Трэклист:
1 - E penn pellan ar bed
2 - Mezi Mezi
3 - En aver vor
4 - L'ex-clair de Lune
5 - Ar feuntenn zu
6 - Perina
7 - Yeun Elez
8 - An Eured Vein
9 - Na ouel ket
10 - Al luhedenn wenn
11 - Beltan
Доп. информация: Гвенаэль Керлео (Gwenaël Kerléo) - - композитор, певица и арфистка в одном лице. Гвенаэль живет в провинции Бретань, однако корни ее скандинавские. Она исполняет традиционную музыку своего народа на кельтской арфе – одном из древнейших инструментов. Музыка, которую создает Гвенаэль, – это не просто уникальное музыкальное событие, безупречное с точки зрения качества и вкуса.
Доп. инфа взята у - W@ter-lily (спасибо).
Log EAC
Exact Audio Copy V0.99 prebeta 5 from 4. May 2009
Отчёт EAC об извлечении, выполненном 24. марта 2010, 19:00
Unknown Artist / Unknown Title
Дисковод: Optiarc DVD RW AD-7240S Adapter: 3 ID: 1
Режим чтения : Достоверность
Использование точного потока : Да
Отключение кэша аудио : Нет (ну нет на нем кэша! Optiarc DVD RW AD-7240S - напомню)
Использование указателей C2 : Нет
Коррекция смещения при чтении : 48
Способность читать области Lead-in и Lead-out : Нет
Заполнение пропущенных сэмплов тишиной : Да
Удаление блоков с тишиной в начале и конце : Нет
При вычислениях CRC использовались нулевые сэмплы : Нет
Интерфейс : Встроенный Win32-интерфейс для Win NT/2000
Выходной формат : Пользовательский кодировщик
Выбранный битрейт : 768 kBit/s
Качество : Высокий
Добавление ID3-тэга : Нет
Утилита сжатия : C:\Program Files\Exact Audio Copy\FLAC\FLAC.EXE
Дополнительные параметры : -6 -V -T "ARTIST=%a" -T "TITLE=%t" -T "ALBUM=%g" -T "DATE=%y" -T "TRACKNUMBER=%n" -T "GENRE=%m" -T "COMMENT=%e" %s -o %d
TOC извлечённого CD
Трек | Старт | Длительность | Начальный сектор | Конечный сектор
---------------------------------------------------------------------
1 | 0:00.00 | 4:20.12 | 0 | 19511
2 | 4:20.12 | 3:12.46 | 19512 | 33957
3 | 7:32.58 | 3:51.10 | 33958 | 51292
4 | 11:23.68 | 5:07.38 | 51293 | 74355
5 | 16:31.31 | 2:25.50 | 74356 | 85280
6 | 18:57.06 | 3:32.42 | 85281 | 101222
7 | 22:29.48 | 2:50.68 | 101223 | 114040
8 | 25:20.41 | 4:34.54 | 114041 | 134644
9 | 29:55.20 | 5:15.73 | 134645 | 158342
10 | 35:11.18 | 3:56.43 | 158343 | 176085
11 | 39:07.61 | 4:54.42 | 176086 | 198177
Характеристики диапазона извлечения и сообщения об ошибках
Выбранный диапазон
Имя файла Z:\Tor\torrent для раздачи\Pevar lossless\Gwenael Kerleo - Pevar.wav
Пиковый уровень 98.8 %
Качество диапазона 100.0 %
CRC копии 7B989CBC
Копирование... OK
Ошибок не произошло
AccurateRip: сводка
Трек 1 точное извлечение (доверие 1) [8BC3A923]
Трек 2 точное извлечение (доверие 1) [0A074AB1]
Трек 3 точное извлечение (доверие 1) [76EB49C3]
Трек 4 точное извлечение (доверие 1) [2ACE16C3]
Трек 5 точное извлечение (доверие 1) [DFD5AA03]
Трек 6 точное извлечение (доверие 1) [C041E8CD]
Трек 7 точное извлечение (доверие 1) [62FF2797]
Трек 8 точное извлечение (доверие 1) [1AF66E51]
Трек 9 точное извлечение (доверие 1) [409084DF]
Трек 10 точное извлечение (доверие 1) [80252061]
Трек 11 точное извлечение (доверие 1) [D873D532]
Все треки извлечены точно
Конец отчёта
Download
Чтобы скачать .torrent файл необходима регистрация
Сайт не распространяет и не хранит электронные версии произведений, а лишь предоставляет доступ к создаваемому пользователями каталогу ссылок на торрент-файлы, которые содержат только списки хеш-сумм
[Профиль]  [ЛС] 

Elmiril

Стаж: 8 лет

Сообщений: 10

Elmiril · 05-Апр-10 22:55 (спустя 12 дней)

[Цитировать] 

А ут раздачи проверяют?
[Профиль]  [ЛС] 

marksman

VIP

Стаж: 10 лет 11 месяцев

Сообщений: 6506

marksman · 09-Май-10 18:28 (спустя 1 месяц 3 дня)

[Цитировать] 

Elmiril
Цитата:
Отключение кэша аудио : Нет
Если это рип с вашего диска, лучше перерипать и отключить кэш.
Пока статус только сомнительно.
EAC: Инструкция по настройке для снятия аудиоданных с максимальной точностью
[Профиль]  [ЛС] 

Баурсак_беспармак

Стаж: 7 лет 6 месяцев

Сообщений: 5


Баурсак_беспармак · 15-Май-10 22:52 (спустя 6 дней)

[Цитировать] 

Когда будет новый рип? Хочется всё же скачать точную копию. Спасибо.
[Профиль]  [ЛС] 

hugohelp

Стаж: 7 лет 6 месяцев

Сообщений: 14


hugohelp · 03-Ноя-10 17:18 (спустя 5 месяцев 18 дней)

[Цитировать] 

У неё тур по России был недавно. Выступала в месте с парнем на аккордеоне! это просто офигенно!!!
где бы такую запись достать.......
[Профиль]  [ЛС] 

Bookbookup

Top Seed 01* 40r

Стаж: 9 лет 3 месяца

Сообщений: 358

Bookbookup · 20-Май-11 21:57 (спустя 6 месяцев)

[Цитировать] 

marksman писал(а):
лучше перерипать и отключить кэш.
Баурсак_беспармак писал(а):
Когда будет новый рип? Хочется всё же скачать точную копию.
Optiarc AD-7240S не кэширует, так что рип и так точнее некуда!
[Профиль]  [ЛС] 

toppron

Top User 02

Стаж: 9 лет 4 месяца

Сообщений: 151

toppron · 08-Мар-12 02:30 (спустя 9 месяцев)

[Цитировать] 

арфы тут очень мало. тегов нет.
[Профиль]  [ЛС] 

Sh_Holmеs

Top Seed 05* 640r

Стаж: 8 лет 3 месяца

Сообщений: 7200

Sh_Holmеs · 23-Июл-12 23:43 (спустя 4 месяца 15 дней, ред. 24-Июл-12 19:42)

[Цитировать] 

Нужно исправлять...
Корректный куй:
скрытый текст
REM DISCID 940A520B
REM COMMENT "ExactAudioCopy v0.99pb5"
PERFORMER "Gwenael Kerleo"
TITLE "Pevar"
FILE "Gwenael Kerleo - Pevar.flac" WAVE
TRACK 01 AUDIO
TITLE "E penn pellan ar bed"
PERFORMER "Gwenael Kerleo"
INDEX 01 00:00:00
TRACK 02 AUDIO
TITLE "Mezi Mezi"
PERFORMER "Gwenael Kerleo"
INDEX 01 04:20:12
TRACK 03 AUDIO
TITLE "En aver vor"
PERFORMER "Gwenael Kerleo"
INDEX 01 07:32:58
TRACK 04 AUDIO
TITLE "L'ex-clair de Lune"
PERFORMER "Gwenael Kerleo"
INDEX 01 11:23:68
TRACK 05 AUDIO
TITLE "Ar feuntenn zu"
PERFORMER "Gwenael Kerleo"
INDEX 00 16:30:28
INDEX 01 16:31:31
TRACK 06 AUDIO
TITLE "Perina"
PERFORMER "Gwenael Kerleo"
INDEX 01 18:57:06
TRACK 07 AUDIO
TITLE "Yeun Elez"
PERFORMER "Gwenael Kerleo"
INDEX 01 22:29:48
TRACK 08 AUDIO
TITLE "An Eured Vein"
PERFORMER "Gwenael Kerleo"
INDEX 01 25:20:41
TRACK 09 AUDIO
TITLE "Na ouel ket"
PERFORMER "Gwenael Kerleo"
INDEX 01 29:55:20
TRACK 10 AUDIO
TITLE "Al luhedenn wenn"
PERFORMER "Gwenael Kerleo"
INDEX 01 35:11:18
TRACK 11 AUDIO
TITLE "Beltan"
PERFORMER "Gwenael Kerleo"
INDEX 00 39:06:32
INDEX 01 39:07:61
[Профиль]  [ЛС] 

dc_Freeman

Стаж: 6 лет 10 месяцев

Сообщений: 17


dc_Freeman · 27-Июл-12 21:43 (спустя 3 дня)

[Цитировать] 

Да, здесь далеко не только арфа и голос певицы. Мне больше нравится арфа Alizbarа Metamorphoses of Ann' (на трекере, кстати есть в lossless)
[Профиль]  [ЛС] 

Sh_Holmеs

Top Seed 05* 640r

Стаж: 8 лет 3 месяца

Сообщений: 7200

Sh_Holmеs · 28-Июл-12 01:25 (спустя 3 часа)

[Цитировать] 

dc_Freeman - да, отличная вещь)
[Профиль]  [ЛС] 

Hussein13

Стаж: 7 лет 8 месяцев

Сообщений: 7


Hussein13 · 12-Авг-17 12:28 (спустя 5 лет)

[Цитировать] 

Благодарю! Великолепная музыка!!!
[Профиль]  [ЛС] 
 
Ответить
Loading...
Error