Адрес РуТрекера для пользователей РФ - MainTracker.org

Расскажи друзьям:  

Снежная королева (Владлен Барбэ, Максим Свешников) [2012, мультфильм, фэнтези, приключения, HDRip]

Страницы:  1

Ответить
Автор
Сообщение

CurHaJI

Top Loader 01* 100GB

Стаж: 8 лет 1 месяц

Сообщений: 321

CurHaJI · 11-Окт-15 20:10 (2 года 2 месяца назад)

Снежная королева
Страна: Россия
Жанр: Фэнтези, приключения, семейный
Продолжительность: 01:16:00
Год выпуска: 2012
Режиссёр: Владлен Барбэ, Максим Свешников
Роли озвучивали: Иван Охлобыстин, Нюша Шурочкина, Анна Ардова, Рамиля Искандер, Дмитрий Нагиев, Лиза Арзамасова, Галина Тюнина, Юрий Стоянов, Людмила Артемьева, Михаил Тихонов
Описание: В стремлении сотворить Новый мир — холодный и практичный, где четкость линий призвана заменить эмоции, а северный ветер должен остудить людские души, Снежная Королева избавляется от всех представителей творческих профессий. Маленькой и смелой Герде, отправившейся в опасное путешествие, чтобы спасти своего брата Кая, предстоит столкнуться с этим холодным миром Снежной Королевы. Преодолевая все сложности и преграды на пути к своей цели, Герда не только обретает семью, но и веру в себя, находит поддержку новых друзей...
Доп. информация: рип РГ Scarabey
Семпл: http://multi-up.com/1070692
Качество: HDRip
Формат: AVI
Видео: 720x400 (1.80:1), 24.000 fps, XviD build 50 ~2270 kbps avg, 0.33 bit/pixel
Аудио: 48 kHz, AC3 Dolby Digital, 3/2 (L,C,R,l,r) + LFE ch, ~448.00 kbps avg
MediaInfo
General
Complete name : Snezhnaa.Koroleva.1.2012.O.HDRip.1400.avi
Format : AVI
Format/Info : Audio Video Interleave
File size : 1.45 GiB
Duration : 1h 16mn
Overall bit rate : 2 728 Kbps
Writing application : VirtualDubMod 1.5.10.2 (build 2540/release)
Writing library : VirtualDubMod build 2540/release
Video
ID : 0
Format : MPEG-4 Visual
Format profile : Advanced Simple@L5
Format settings, BVOP : 1
Format settings, QPel : No
Format settings, GMC : No warppoints
Format settings, Matrix : Custom
Codec ID : XVID
Codec ID/Hint : XviD
Duration : 1h 16mn
Bit rate : 2 270 Kbps
Width : 720 pixels
Height : 400 pixels
Display aspect ratio : 16:9
Frame rate : 24.000 fps
Color space : YUV
Chroma subsampling : 4:2:0
Bit depth : 8 bits
Scan type : Progressive
Compression mode : Lossy
Bits/(Pixel*Frame) : 0.328
Stream size : 1.21 GiB (83%)
Writing library : XviD 1.2.1 (UTC 2008-12-04)
Audio
ID : 1
Format : AC-3
Format/Info : Audio Coding 3
Mode extension : CM (complete main)
Format settings, Endianness : Big
Codec ID : 2000
Duration : 1h 16mn
Bit rate mode : Constant
Bit rate : 448 Kbps
Channel(s) : 6 channels
Channel positions : Front: L C R, Side: L R, LFE
Sampling rate : 48.0 KHz
Bit depth : 16 bits
Compression mode : Lossy
Stream size : 244 MiB (16%)
Alignment : Split accross interleaves
Interleave, duration : 42 ms (1.00 video frame)
Interleave, preload duration : 500 ms
Скриншоты
Download
Чтобы скачать .torrent файл необходима регистрация
Сайт не распространяет и не хранит электронные версии произведений, а лишь предоставляет доступ к создаваемому пользователями каталогу ссылок на торрент-файлы, которые содержат только списки хеш-сумм
[Профиль]  [ЛС] 

STAKANOFFF

Стаж: 8 лет 1 месяц

Сообщений: 28


STAKANOFFF · 16-Окт-15 13:53 (спустя 4 дня)

[Цитировать] 

Опана. никтое даже спасибо не сказал. Спасибо! Будем надеяться что мульт понравится.
[Профиль]  [ЛС] 

Keirra

Победители конкурсов

Стаж: 4 года

Сообщений: 716

Keirra · 23-Ноя-15 17:08 (спустя 1 месяц 7 дней)

[Цитировать] 

Веселый и добрый мультик. Сюжет, правда, попроще будет, чем у Андерсена.
Графика по качеству уступает голливудской, но в общем очень даже неплохая. Сама мультипликация (то есть движения героев, мимика) отличная.
Озвучка шикарная. Молодцы актеры Иван Охлобыстин и Галина Тюнина.
Спасибо за релиз.
[Профиль]  [ЛС] 

MVNikol

Стаж: 9 лет 11 месяцев

Сообщений: 37


MVNikol · 28-Ноя-15 18:40 (спустя 5 дней)

[Цитировать] 

Спасибо Вам за релиз! Хоть и привык к рисованному, старому варианту, этот фильм неплох. Осовременен в ногу со временем.
[Профиль]  [ЛС] 

vik19662007

Стаж: 10 лет 1 месяц

Сообщений: 521

vik19662007 · 23-Дек-15 17:46 (спустя 24 дня)

[Цитировать] 

Спасибо.
Мультик вытягивает игра актера Ивана Охлобыстина.
[Профиль]  [ЛС] 

herolder

Стаж: 6 лет

Сообщений: 45


herolder · 04-Янв-16 14:06 (спустя 11 дней, ред. 06-Янв-16 13:23)

[Цитировать] 

Ну чо, жутко интересно самостоятельно сравнить с "Холодным сердцем". Понимаю, что мульты разные, и сабж раскрыт по-разному, но Дисней адназначна справился. Сичас заценим сие творение В-)
А чо? Норм, по-своему снято. Реально как-то ближе по задумке (вот было б на каком-нить другом языке. все равно прохавал бы. что наши снимали). Не без огрех, но и диснеевский меня покорежил каким-то надуманным сеттингом.
[Профиль]  [ЛС] 

Flash-Mig

Стаж: 5 лет

Сообщений: 168


Flash-Mig · 01-Янв-17 19:17 (спустя 11 месяцев)

[Цитировать] 

*Naanь-moo-luna* писал(а):
71703108Спасибо за раздачу!
Крайние псевдо-"диснеевские" мультфильмы, настолько, полагаю, перестали быть смотрибельными, что пора юы компании отказаться отимени самого известного
лётчика-истребителя США в своём бренде! Мульт подсказала жена, вдохновившаяся озвучкой И.Охлобстина в "Перезаморозке"! От себя скажу:- сравнивать с американскими м/ф, - полный бред! Одинаковое ПО для создания видеоряда, это, пардон, не повод сравнивать целевую аудиторию!
Спасибо за релиз!!!
[Профиль]  [ЛС] 

imant777

Стаж: 4 года 9 месяцев

Сообщений: 433

imant777 · 09-Янв-17 22:40 (спустя 8 дней)

[Цитировать] 

Компьютеризированный по пиндосовским технологиям видеоряд - это не мультфильмы.
Союзмультфильм надо детям показывать, а не это.
[Профиль]  [ЛС] 

Myoning

Стаж: 9 лет 4 месяца

Сообщений: 10


Myoning · 02-Июл-17 12:08 (спустя 5 месяцев 23 дня, ред. 02-Июл-17 12:08)

[Цитировать] 

Чудесно экранизированная сказка! Пусть можно анимацию круче сделать и прочее. Но создатели очень глубоко капнули. Приятно смотреть!
[Профиль]  [ЛС] 
 
Ответить
Loading...
Error