Адрес РуТрекера для пользователей РФ - MainTracker.org

Расскажи друзьям:  

Beyonce ★ Beyonce [2013, Pop, R&B, Soul, Blu-ray]

Страницы:  1

Ответить
Автор
Сообщение

meloman67

Moderator

Стаж: 8 лет 10 месяцев

Сообщений: 5386

meloman67 · 17-Апр-14 14:00 (3 года 10 месяцев назад, ред. 30-Июл-15 18:04)

Жанр: Pop, R&B, Soul
Продолжительность: 01:18:04
Год выпуска: 2013
01. Pretty Hurts - Harvey Keitel
02. Ghost/Haunted
03. Drunk In Love
04. Blow
05. No Angel
06. Yonce/Partition
07. Jealous
08. Rocket
09. Mine - Drake
10. XO
11. Flawless - Chimamanda Ngozi Adicihe
12. Superpower - Frank Ocean
13. Heaven
14. Blue - Blue Ivy
15. Grown Woman

Качество: Blu-ray
Контейнер: BDMV
Видео кодек: MPEG4
Аудио кодек: PCM, AC3
Видео: MPEG-4 AVC Video / 26995 kbps / 1080p / 23,976 fps / 16:9 / High Profile 4.1
Аудио 1: English / LPCM Audio / 2.0 / 48 kHz / 2304 kbps / 24-bit
Аудио 2: English / Dolby Digital Audio / 5.1 / 48 kHz / 640 kbps
Аудио 3: English / LPCM Audio / 5.1 / 48 kHz / 6912 kbps / 24-bit
Отчёт MediaInfo / BDInfo
Disc Title:     Beyonce - Beyonce (2013)  Blu-ray
Disc Size: 22 838 032 729 bytes
Protection: AACS
BD-Java: No
BDInfo: 0.5.8
Notes:
BDINFO HOME:
Cinema Squid
http://www.cinemasquid.com/blu-ray/tools/bdinfo
INCLUDES FORUMS REPORT FOR:
AVS Forum Blu-ray Audio and Video Specifications Thread
http://www.avsforum.com/avs-vb/showthread.php?t=1155731
********************
PLAYLIST: 00800.MPLS
********************
<--- BEGIN FORUMS PASTE --->
Код:
Total   Video
Title                                                           Codec   Length  Movie Size      Disc Size       Bitrate Bitrate Main Audio Track                          Secondary Audio Track
-----                                                           ------  ------- --------------  --------------  ------- ------- ------------------                        ---------------------
00800.MPLS                                                      AVC     1:18:04 22 713 212 928  22 838 032 729  38,79   27,00   LPCM 2.0 2304Kbps (48kHz/24-bit)          DD AC3 5.1 640Kbps
Код:
DISC INFO:
Disc Title:     BEYONCE_2013_HDCLUB
Disc Size:      22 838 032 729 bytes
Protection:     AACS
BD-Java:        No
BDInfo:         0.5.8
PLAYLIST REPORT:
Name:                   00800.MPLS
Length:                 1:18:04.096 (h:m:s.ms)
Size:                   22 713 212 928 bytes
Total Bitrate:          38,79 Mbps
VIDEO:
Codec                   Bitrate             Description
-----                   -------             -----------
MPEG-4 AVC Video        26995 kbps          1080p / 23,976 fps / 16:9 / High Profile 4.1
AUDIO:
Codec                           Language        Bitrate         Description
-----                           --------        -------         -----------
LPCM Audio                      English         2304 kbps       2.0 / 48 kHz / 2304 kbps / 24-bit
Dolby Digital Audio             English         640 kbps        5.1 / 48 kHz / 640 kbps
LPCM Audio                      English         6912 kbps       5.1 / 48 kHz / 6912 kbps / 24-bit
FILES:
Name            Time In         Length          Size            Total Bitrate
----            -------         ------          ----            -------------
00008.M2TS      0:00:00.000     1:18:04.096     22 713 212 928  38 792
CHAPTERS:
Number          Time In         Length          Avg Video Rate  Max 1-Sec Rate  Max 1-Sec Time  Max 5-Sec Rate  Max 5-Sec Time  Max 10Sec Rate  Max 10Sec Time  Avg Frame Size  Max Frame Size  Max Frame Time
------          -------         ------          --------------  --------------  --------------  --------------  --------------  --------------  --------------  --------------  --------------  --------------
1               0:00:00.000     1:18:04.096     26 995 kbps     50 728 kbps     01:10:59.380    39 473 kbps     01:10:55.376    38 156 kbps     01:10:50.412    140 740 bytes   633 228 bytes   00:56:54.452
STREAM DIAGNOSTICS:
File            PID             Type            Codec           Language                Seconds                 Bitrate                 Bytes           Packets
----            ---             ----            -----           --------                --------------          --------------          -------------   -----
00008.M2TS      4113 (0x1011)   0x1B            AVC                                     4683,929                26 996                  15 805 934 057  85 967 121
00008.M2TS      4352 (0x1100)   0x80            LPCM            eng (English)           4683,929                2 310                   1 352 768 080   7 494 560
00008.M2TS      4353 (0x1101)   0x81            AC3             eng (English)           4683,929                640                     374 730 240     2 195 685
00008.M2TS      4354 (0x1102)   0x80            LPCM            eng (English)           4683,929                6 919                   4 050 809 680   22 483 680
<---- END FORUMS PASTE ---->
QUICK SUMMARY:
Disc Title: BEYONCE_2013_HDCLUB
Disc Size: 22 838 032 729 bytes
Protection: AACS
BD-Java: No
Playlist: 00800.MPLS
Size: 22 713 212 928 bytes
Length: 1:18:04.096
Total Bitrate: 38,79 Mbps
Video: MPEG-4 AVC Video / 26995 kbps / 1080p / 23,976 fps / 16:9 / High Profile 4.1
Audio: English / LPCM Audio / 2.0 / 48 kHz / 2304 kbps / 24-bit
Audio: English / Dolby Digital Audio / 5.1 / 48 kHz / 640 kbps
Audio: English / LPCM Audio / 5.1 / 48 kHz / 6912 kbps / 24-bit
********************
PLAYLIST: 00802.MPLS
********************
<--- BEGIN FORUMS PASTE --->
Код:
Total   Video
Title                                                           Codec   Length  Movie Size      Disc Size       Bitrate Bitrate Main Audio Track                          Secondary Audio Track
-----                                                           ------  ------- --------------  --------------  ------- ------- ------------------                        ---------------------
00802.MPLS                                                      AVC     1:18:04 22 713 212 928  22 838 032 729  38,79   27,00   LPCM 2.0 2304Kbps (48kHz/24-bit)          DD AC3 5.1 640Kbps
Код:
DISC INFO:
Disc Title:     BEYONCE_2013_HDCLUB
Disc Size:      22 838 032 729 bytes
Protection:     AACS
BD-Java:        No
BDInfo:         0.5.8
PLAYLIST REPORT:
Name:                   00802.MPLS
Length:                 1:18:04.096 (h:m:s.ms)
Size:                   22 713 212 928 bytes
Total Bitrate:          38,79 Mbps
VIDEO:
Codec                   Bitrate             Description
-----                   -------             -----------
MPEG-4 AVC Video        26995 kbps          1080p / 23,976 fps / 16:9 / High Profile 4.1
AUDIO:
Codec                           Language        Bitrate         Description
-----                           --------        -------         -----------
LPCM Audio                      English         2304 kbps       2.0 / 48 kHz / 2304 kbps / 24-bit
Dolby Digital Audio             English         640 kbps        5.1 / 48 kHz / 640 kbps
LPCM Audio                      English         6912 kbps       5.1 / 48 kHz / 6912 kbps / 24-bit
FILES:
Name            Time In         Length          Size            Total Bitrate
----            -------         ------          ----            -------------
00008.M2TS      0:00:00.000     1:18:04.096     22 713 212 928  38 792
CHAPTERS:
Number          Time In         Length          Avg Video Rate  Max 1-Sec Rate  Max 1-Sec Time  Max 5-Sec Rate  Max 5-Sec Time  Max 10Sec Rate  Max 10Sec Time  Avg Frame Size  Max Frame Size  Max Frame Time
------          -------         ------          --------------  --------------  --------------  --------------  --------------  --------------  --------------  --------------  --------------  --------------
1               0:00:00.000     0:07:05.216     24 169 kbps     38 531 kbps     00:01:07.776    36 986 kbps     00:01:04.064    36 099 kbps     00:06:54.872    125 991 bytes   434 315 bytes   00:07:04.882
2               0:07:05.216     0:02:29.983     15 314 kbps     35 236 kbps     00:08:07.695    24 523 kbps     00:09:10.591    19 797 kbps     00:09:08.923    79 841 bytes    385 603 bytes   00:07:21.149
3               0:09:35.199     0:05:21.320     33 059 kbps     44 853 kbps     00:09:38.869    37 452 kbps     00:13:19.381    36 935 kbps     00:10:25.625    172 353 bytes   583 639 bytes   00:10:35.509
4               0:14:56.520     0:06:24.801     21 435 kbps     35 977 kbps     00:21:04.346    34 238 kbps     00:21:02.344    30 217 kbps     00:21:02.344    111 750 bytes   547 736 bytes   00:21:21.238
5               0:21:21.321     0:05:27.535     29 940 kbps     44 282 kbps     00:24:39.853    37 112 kbps     00:22:06.450    36 760 kbps     00:22:24.968    156 095 bytes   627 194 bytes   00:25:12.594
6               0:26:48.857     0:03:51.522     30 437 kbps     41 327 kbps     00:30:36.376    37 319 kbps     00:26:54.446    35 277 kbps     00:30:14.187    158 684 bytes   570 155 bytes   00:30:37.210
7               0:30:40.380     0:02:01.412     28 123 kbps     39 344 kbps     00:31:56.581    37 027 kbps     00:31:52.452    34 720 kbps     00:31:49.490    146 618 bytes   468 033 bytes   00:31:31.222
8               0:32:41.793     0:03:48.937     22 368 kbps     37 587 kbps     00:33:59.954    34 325 kbps     00:32:47.340    29 172 kbps     00:33:35.847    116 619 bytes   347 398 bytes   00:32:48.424
9               0:36:30.730     0:03:27.290     24 567 kbps     37 934 kbps     00:38:36.814    36 978 kbps     00:38:33.936    35 539 kbps     00:38:32.059    128 079 bytes   344 512 bytes   00:39:56.685
10              0:39:58.020     0:04:28.685     33 821 kbps     39 268 kbps     00:44:07.061    37 273 kbps     00:44:03.223    36 843 kbps     00:43:04.915    176 325 bytes   338 475 bytes   00:42:52.861
11              0:44:26.705     0:04:58.256     23 838 kbps     38 211 kbps     00:46:35.167    32 507 kbps     00:46:31.205    29 859 kbps     00:48:20.606    124 280 bytes   447 431 bytes   00:49:19.456
12              0:49:24.962     0:03:37.175     28 374 kbps     38 716 kbps     00:50:26.189    37 086 kbps     00:50:17.097    34 827 kbps     00:49:33.261    147 927 bytes   474 098 bytes   00:49:58.495
13              0:53:02.137     0:04:10.208     30 180 kbps     49 010 kbps     00:56:53.493    38 100 kbps     00:56:49.489    36 820 kbps     00:53:28.788    157 345 bytes   633 228 bytes   00:56:54.452
14              0:57:12.345     0:05:23.906     27 447 kbps     41 831 kbps     01:01:18.007    37 683 kbps     01:01:28.351    36 628 kbps     01:02:23.322    143 097 bytes   424 382 bytes   00:59:34.779
15              1:02:36.252     0:03:54.025     27 710 kbps     38 524 kbps     01:06:12.134    37 059 kbps     01:04:45.423    36 403 kbps     01:05:30.885    144 467 bytes   476 241 bytes   01:06:12.885
16              1:06:30.277     0:04:36.985     35 786 kbps     50 728 kbps     01:10:59.380    39 473 kbps     01:10:55.376    38 156 kbps     01:10:50.412    186 572 bytes   454 486 bytes   01:10:59.964
17              1:11:07.263     0:02:33.736     3 992 kbps      7 155 kbps      01:11:55.853    4 658 kbps      01:12:01.859    4 198 kbps      01:11:49.888    20 814 bytes    192 901 bytes   01:11:08.889
18              1:13:40.999     0:04:23.096     33 108 kbps     44 318 kbps     01:16:48.103    38 159 kbps     01:16:44.099    37 447 kbps     01:16:39.136    172 639 bytes   488 812 bytes   01:13:49.341
STREAM DIAGNOSTICS:
File            PID             Type            Codec           Language                Seconds                 Bitrate                 Bytes           Packets
----            ---             ----            -----           --------                --------------          --------------          -------------   -----
00008.M2TS      4113 (0x1011)   0x1B            AVC                                     4683,929                26 996                  15 805 934 057  85 967 121
00008.M2TS      4352 (0x1100)   0x80            LPCM            eng (English)           4683,929                2 310                   1 352 768 080   7 494 560
00008.M2TS      4353 (0x1101)   0x81            AC3             eng (English)           4683,929                640                     374 730 240     2 195 685
00008.M2TS      4354 (0x1102)   0x80            LPCM            eng (English)           4683,929                6 919                   4 050 809 680   22 483 680
<---- END FORUMS PASTE ---->
QUICK SUMMARY:
Disc Title: BEYONCE_2013_HDCLUB
Disc Size: 22 838 032 729 bytes
Protection: AACS
BD-Java: No
Playlist: 00802.MPLS
Size: 22 713 212 928 bytes
Length: 1:18:04.096
Total Bitrate: 38,79 Mbps
Video: MPEG-4 AVC Video / 26995 kbps / 1080p / 23,976 fps / 16:9 / High Profile 4.1
Audio: English / LPCM Audio / 2.0 / 48 kHz / 2304 kbps / 24-bit
Audio: English / Dolby Digital Audio / 5.1 / 48 kHz / 640 kbps
Audio: English / LPCM Audio / 5.1 / 48 kHz / 6912 kbps / 24-bit
********************
PLAYLIST: 00060.MPLS
********************
<--- BEGIN FORUMS PASTE --->
Код:
Total   Video
Title                                                           Codec   Length  Movie Size      Disc Size       Bitrate Bitrate Main Audio Track                          Secondary Audio Track
-----                                                           ------  ------- --------------  --------------  ------- ------- ------------------                        ---------------------
00060.MPLS                                                      AVC     0:00:33 27 353 088      22 838 032 729  6,62    2,28    LPCM 2.0 1536Kbps (48kHz/16-bit)          DD AC3 5.1 448Kbps
Код:
DISC INFO:
Disc Title:     BEYONCE_2013_HDCLUB
Disc Size:      22 838 032 729 bytes
Protection:     AACS
BD-Java:        No
BDInfo:         0.5.8
PLAYLIST REPORT:
Name:                   00060.MPLS
Length:                 0:00:33.033 (h:m:s.ms)
Size:                   27 353 088 bytes
Total Bitrate:          6,62 Mbps
VIDEO:
Codec                   Bitrate             Description
-----                   -------             -----------
MPEG-4 AVC Video        2277 kbps           1080i / 29,970 fps / 16:9 / High Profile 4.1
AUDIO:
Codec                           Language        Bitrate         Description
-----                           --------        -------         -----------
LPCM Audio                      English         1536 kbps       2.0 / 48 kHz / 1536 kbps / 16-bit
Dolby Digital Audio             English         448 kbps        5.1 / 48 kHz / 448 kbps / DN -4dB
LPCM Audio                      English         1536 kbps       2.0 / 48 kHz / 1536 kbps / 16-bit
FILES:
Name            Time In         Length          Size            Total Bitrate
----            -------         ------          ----            -------------
00007.M2TS      0:00:00.000     0:00:33.033     27 353 088      6 624
CHAPTERS:
Number          Time In         Length          Avg Video Rate  Max 1-Sec Rate  Max 1-Sec Time  Max 5-Sec Rate  Max 5-Sec Time  Max 10Sec Rate  Max 10Sec Time  Avg Frame Size  Max Frame Size  Max Frame Time
------          -------         ------          --------------  --------------  --------------  --------------  --------------  --------------  --------------  --------------  --------------  --------------
1               0:00:00.000     0:00:33.033     2 277 kbps      8 576 kbps      00:00:22.622    3 835 kbps      00:00:21.020    3 350 kbps      00:00:22.522    9 497 bytes     183 505 bytes   00:00:30.030
STREAM DIAGNOSTICS:
File            PID             Type            Codec           Language                Seconds                 Bitrate                 Bytes           Packets
----            ---             ----            -----           --------                --------------          --------------          -------------   -----
00007.M2TS      4113 (0x1011)   0x1B            AVC                                     32,900                  2 286                   9 402 394       51 710
00007.M2TS      4352 (0x1100)   0x80            LPCM            eng (English)           32,900                  1 549                   6 369 148       39 642
00007.M2TS      4353 (0x1101)   0x81            AC3             eng (English)           32,900                  450                     1 851 136       10 330
00007.M2TS      4354 (0x1102)   0x80            LPCM            eng (English)           32,900                  1 549                   6 369 148       39 642
<---- END FORUMS PASTE ---->
QUICK SUMMARY:
Disc Title: BEYONCE_2013_HDCLUB
Disc Size: 22 838 032 729 bytes
Protection: AACS
BD-Java: No
Playlist: 00060.MPLS
Size: 27 353 088 bytes
Length: 0:00:33.033
Total Bitrate: 6,62 Mbps
Video: MPEG-4 AVC Video / 2277 kbps / 1080i / 29,970 fps / 16:9 / High Profile 4.1
Audio: English / LPCM Audio / 2.0 / 48 kHz / 1536 kbps / 16-bit
Audio: English / Dolby Digital Audio / 5.1 / 48 kHz / 448 kbps / DN -4dB
Audio: English / LPCM Audio / 2.0 / 48 kHz / 1536 kbps / 16-bit
Download
Чтобы скачать .torrent файл необходима регистрация
Сайт не распространяет и не хранит электронные версии произведений, а лишь предоставляет доступ к создаваемому пользователями каталогу ссылок на торрент-файлы, которые содержат только списки хеш-сумм
[Профиль]  [ЛС] 
 

lazerkone

Стаж: 5 лет 7 месяцев

Сообщений: 24

lazerkone · 17-Апр-14 14:51 (спустя 51 мин., ред. 17-Апр-14 14:51)

[Цитировать] 

оооооооо красавчик
а я только что хотел заказывать, но решил на всякий случай глянуть может кто выкинул, а ТУТ такое
[Профиль]  [ЛС] 

jagdeep

Top Seed 07* 2560r

Стаж: 4 года 7 месяцев

Сообщений: 4147

jagdeep · 17-Апр-14 14:54 (спустя 2 мин.)

[Цитировать] 

Thanks :O kindly upload in short format also
[Профиль]  [ЛС] 

12321getteg

Стаж: 5 лет 4 месяца

Сообщений: 275


12321getteg · 17-Апр-14 15:46 (спустя 52 мин.)

[Цитировать] 

А можно выложить как отдельные файлы?
[Профиль]  [ЛС] 

AlexSchl

VIP (Заслуженный)

Стаж: 9 лет 1 месяц

Сообщений: 3041

AlexSchl · 17-Апр-14 16:23 (спустя 37 мин.)

[Цитировать] 

12321getteg
Beyoncé (Visual Album) [2013, Electro-R&B / Pop, BD Remux]
[Профиль]  [ЛС] 

12321getteg

Стаж: 5 лет 4 месяца

Сообщений: 275


12321getteg · 17-Апр-14 17:18 (спустя 55 мин.)

[Цитировать] 

Там нет все клипы. Мне особенно нужен флолесс.
[Профиль]  [ЛС] 

Руслан_1972

Стаж: 6 лет 7 месяцев

Сообщений: 41


Руслан_1972 · 18-Апр-14 07:00 (спустя 13 часов)

[Цитировать] 

а рип на 1080р или 720р можно? огромное спасибо ждем!!!!
[Профиль]  [ЛС] 

didiere

Стаж: 5 лет 4 месяца

Сообщений: 2


didiere · 19-Апр-14 22:41 (спустя 1 день 15 часов)

[Цитировать] 

Gracias excelente aporte
[Профиль]  [ЛС] 

AlexSchl

VIP (Заслуженный)

Стаж: 9 лет 1 месяц

Сообщений: 3041

AlexSchl · 21-Апр-14 21:48 (спустя 1 день 23 часа)

[Цитировать] 

Руслан_1972
Beyonce - Beyonce (Visual Album) [2013, Pop, R&B, Soul, BDRip 720p]
[Профиль]  [ЛС] 

Homid8

Стаж: 6 лет 7 месяцев

Сообщений: 211

Homid8 · 07-Авг-14 17:34 (спустя 3 месяца 15 дней)

[Цитировать] 

А почему такое странное содержание папки?
[Профиль]  [ЛС] 

fgrund

Стаж: 6 лет 5 месяцев

Сообщений: 79


fgrund · 04-Апр-15 20:23 (спустя 7 месяцев)

[Цитировать] 

I read that have a good surround mix. Go for it. Thanks for uploading.
[Профиль]  [ЛС] 

kilosbxl

Стаж: 8 лет 8 месяцев

Сообщений: 48


kilosbxl · 19-Авг-15 00:55 (спустя 4 месяца 14 дней)

[Цитировать] 

Homid8 писал(а):
64767294А почему такое странное содержание папки?
потому что это блурей
открывает powerdvd, да и стандартный mpc может, только без меню.
[Профиль]  [ЛС] 

yuaso

Стаж: 3 года 11 месяцев

Сообщений: 2


yuaso · 22-Апр-16 14:56 (спустя 8 месяцев)

[Цитировать] 

can anyone rip the hires audio please? many thanks!
Аудио 1: English / LPCM Audio / 2.0 / 48 kHz / 2304 kbps / 24-bit
[Профиль]  [ЛС] 

ALEXnROCK

Стаж: 2 года

Сообщений: 59

ALEXnROCK · 16-Июн-17 13:37 (спустя 1 год 1 месяц)

[Цитировать] 

ни одной хитовой вещи.всю нудоту собрали в сборник.пипец полный
[Профиль]  [ЛС] 
 
Ответить
Loading...
Error