Адрес РуТрекера для пользователей РФ - MainTracker.org

Расскажи друзьям:  

«Вечная жизнь: свидетельства бессмертных» [РЕН ТВ РЕН ТВ 05.05.2017] (Игорь Прокопенко) [2017, Документальный спецпроект, SATRip]

Страницы:  1

Ответить
Автор
Сообщение

Chelur

RG Документалисты

Стаж: 9 лет 7 месяцев

Сообщений: 8377

Chelur · 06-Май-17 11:25 (5 месяцев 15 дней назад, ред. 04-Окт-17 16:35)

«Вечная жизнь: свидетельства бессмертных»
Премьера на канале РЕН ТВ!
Год выпуска: 2017 г.
Страна: Россия
Жанр: Документальный спецпроект
Продолжительность: 1 час 35 мин.
Руководитель проекта: Игорь Прокопенко
Режиссер: ...
Перевод: Не требуется
Русские субтитры: нет
Описание: Невероятно, но факт: люди бессмертны. В 2011 году группа российских биологов заявила, что на самом деле любой человек может жить вечно - наша смертность является результатом внешнего вмешательства в геном. Кто запрограммировал людей на самоуничтожение? Какие секреты хранит человеческий мозг? И можем ли мы научиться обманывать смерть? На эти и другие вопросы ответит документальный спецпроект "Вечная жизнь: свидетельства бессмертных".
Релиз группы:
Доп. информация:
Вирус с высокой шкалой смертности расползается по всему миру, однако здесь в Либерии не так боятся самой лихорадки, как тех, кто умер от нее. Ожившего покойника доставили в больницу, и изолировали в специальном боксе. После проведенного специального обследования врачи заявили, это зомби. Маленькую девочку спустя сутки после похорон выкопали из могилы, ее настигла мнимая смерть, живая покойница еще шестнадцать лет спала мертвым сном, пока не раздался телефонный звонок. Тот, кто вернулся с того света, получает дар свыше, сверх способности видеть будущее, общаться с ангелами и исцелять людей. Двор на Кантемировской улице в Москве, ударом качели убита девочка, это дочь известного музыканта Романа Жукова. Со дня на день он ждет рождения еще одного ребенка. Душа не исчезает, а находит себе новое тело. Для Романа это означает одно – его погибшая дочь Лиза жива. Патологоанатом извлек мозг из умершей женщины и поместил в специальный термос. При температуре мину 196 градусов бесценный груз держал у себя дома внук покойной, ожидая транспортировки. Ее ожидает вечная жизнь в вечной мерзлоте, мозг учительницы из Санкт-Петербурга будет воскрешен, когда придет время, она станет первой из тех бессмертных на нашей планете, доказывая всем, что смерти нет.
Качество: SATRip
Формат: AVI
Видео: 720x400 (1.80:1), 25 fps, XviD ~1859 kbps, 0.26 bit/pixel
Аудио: 48 kHz, MPEG Layer 3, 2 ch, ~128 kbps avg
MediaInfo:
Общее
Полное имя : D:\Torrents\Vechnaja_zhizn'-svidetel'stva_bessmertnyh_(REN_TV)-05.05.2017_[rutracker.org].avi
Формат : AVI
Формат/Информация : Audio Video Interleave
Размер файла : 1,33 Гбайт
Продолжительность : 1 ч. 34 м.
Общий поток : 2014 Кбит/сек
Программа кодирования : VirtualDubMod 1.6.0.0 SURROUND (build 2560/release)
Библиотека кодирования : VirtualDubMod build 2560/release
Видео
Идентификатор : 0
Формат : MPEG-4 Visual
Профиль формата : Advanced Simple@L5
Параметр BVOP формата : 2
Параметр QPel формата : Нет
Параметр GMC формата : Без точки перехода
Параметр матрицы формата : Default (MPEG)
Идентификатор кодека : XVID
Идентификатор кодека/Подсказка : XviD
Продолжительность : 1 ч. 34 м.
Битрейт : 1876 Кбит/сек
Ширина : 720 пикселей
Высота : 400 пикселей
Соотношение сторон : 16:9
Соотношение сторон в оригинале : 16:9
Частота кадров : 25,000 кадров/сек
Цветовое пространство : YUV
Субдискретизация насыщенности : 4:2:0
Битовая глубина : 8 бит
Тип развёртки : Прогрессивная
Метод сжатия : С потерями
Бит/(Пиксели*Кадры) : 0.261
Размер потока : 1,23 Гбайт (93%)
Библиотека кодирования : XviD 1.2.1 (UTC 2008-12-04)
Аудио
Идентификатор : 1
Формат : MPEG Audio
Версия формата : Version 1
Профиль формата : Layer 3
Режим : Joint stereo
Расширение режима : MS Stereo
Идентификатор кодека : 55
Идентификатор кодека/Подсказка : MP3
Продолжительность : 1 ч. 34 м.
Вид битрейта : Постоянный
Битрейт : 128 Кбит/сек
Каналы : 2 канала
Частота : 48,0 КГц
Метод сжатия : С потерями
Размер потока : 86,3 Мбайт (6%)
Выравнивание : Соединение по промежуткам
Продолжительность промежутка : 40 мс. (1,00 видеокадр)
Время предзагрузки промежутка : 504 мс.
Библиотека кодирования : LAME3.99r
Настройки программы : -m j -V 4 -q 3 -lowpass 17 -b 128
Скриншоты (превью, увеличение по клику):
На раздаче по возможности, ~20 Mb/s. > [Что от меня зависит, сделал. Остальное зависит от Вас, трекера и наших провайдеров.]
Download
Чтобы скачать .torrent файл необходима регистрация
Сайт не распространяет и не хранит электронные версии произведений, а лишь предоставляет доступ к создаваемому пользователями каталогу ссылок на торрент-файлы, которые содержат только списки хеш-сумм
[Профиль]  [ЛС] 

bot · 14-Май-17 17:40 (спустя 8 дней)

Тема была перенесена из форума Документальные фильмы и телепередачи в форум [Док] Научно-популярные фильмы
SergeyJD
 

Arthal5

Стаж: 1 год 5 месяцев

Сообщений: 25


Arthal5 · 19-Май-17 13:49 (спустя 13 дней)

[Цитировать] 

Когда выпуск с Епифанцевым завезут?
[Профиль]  [ЛС] 
 
Ответить
Loading...
Error