Адрес РуТрекера для пользователей РФ - MainTracker.org

Расскажи друзьям:  

Что? Где? Когда? (Полная коллекция игр) (Владимир Ворошилов, Борис Крюк) [1980-2016, Интеллектуальное шоу, SATRip, HDTVRip, TVRip, IPTVRip, VHSRip, WEBRip]

Страницы:  1

Ответить
Автор
Сообщение

ylnian

Стаж: 6 лет 11 месяцев

Сообщений: 649

ylnian · 05-Янв-17 10:00 (7 месяцев назад, ред. 11-Янв-17 14:32)

Что? Где? Когда? (Полная коллекция игр)
Дата/Год выпуска: 1980-2016
Страна: СССР, Россия
Жанр: Интеллектуальное шоу
Продолжительность: 397 х ~ 00:50:00
Перевод: Не требуется
Режиссер: Владимир Ворошилов, Борис Крюк
Телеканал: ОРТ, Первый канал, Ностальгия, Вопросы и Ответы, Санкт-Петербург, НТВ, РИО
Описание: Интеллектуальная телевизионная игра, в которой команда из шести игроков, называемых «знатоками», ищет правильный ответ на любой заданный им вопрос при помощи мозгового штурма в течение одной минуты. За правильный ответ очко получает команда «знатоков», а если они дают неправильный ответ, очко начисляется их противникам. Побеждает сторона, набравшая шесть очков.
Доп. информация: Автор релиза -
За исходники спасибо: jasPuMkM, Genik, TV-Island, fanatus, alenavova, HandsOfTime, Hogwards, Mit'k@, Dima20021989, profs3, Helliod, RiperAM, Doc66, Kyon99, Mit'k@, Fakhrey, olegka7373 и другие
Названия файлов соответствуют дате съёмки выпуска.
Сэмпл: https://yadi.sk/i/3UGa6SkM375qX3
Качество: SATRip, HDTVRip, TVRip, IPTVRip, VHSRip, WEBRip
Формат: AVI, MKV
Видео: XviD, MPEG-4, 544x404 (4:3), 640x480 (4:3), 720x400 (16:9), 25.000 fps, ~1000 kbps
Аудио: Русский MP3, 48000 Гц, 2ch, ~128 kbps; АС3, 48000 Гц, 2ch, 192 kbps; АС3, АAC, 48000 Гц, 2ch, ~150 kbps
Список выпусков/серий
397 выпусков из 450
MediaInfo
Общее
Полное имя : F:\Что.Где.Когда.Все.сезоны\1984\1984-04-24.avi
Формат : AVI
Формат/Информация : Audio Video Interleave
Профиль формата : OpenDML
Настройки формата : rec
Размер файла : 1018 Мбайт
Продолжительность : 1 ч. 26 м.
Общий поток : 1637 Кбит/сек
Программа кодирования : AVI-Mux GUI 1.17.8.3, Feb 16 201019:42:50
Видео
Идентификатор : 0
Формат : MPEG-4 Visual
Профиль формата : Advanced Simple@L5
Параметр BVOP формата : 1
Параметр QPel формата : Нет
Параметр GMC формата : Без точки перехода
Параметр матрицы формата : Default (H.263)
Идентификатор кодека : XVID
Идентификатор кодека/Подсказка : XviD
Продолжительность : 1 ч. 26 м.
Битрейт : 1500 Кбит/сек
Ширина : 640 пикселей
Высота : 480 пикселей
Соотношение сторон : 4:3
Частота кадров : 25,000 кадров/сек
Цветовое пространство : YUV
Субдискретизация насыщенности : 4:2:0
Битовая глубина : 8 бит
Тип развёртки : Прогрессивная
Метод сжатия : С потерями
Бит/(Пиксели*Кадры) : 0.195
Размер потока : 932 Мбайт (92%)
Библиотека кодирования : XviD 64
Аудио
Идентификатор : 1
Формат : MPEG Audio
Версия формата : Version 1
Профиль формата : Layer 3
Режим : Joint stereo
Расширение режима : MS Stereo
Идентификатор кодека : 55
Идентификатор кодека/Подсказка : MP3
Продолжительность : 1 ч. 26 м.
Вид битрейта : Постоянный
Битрейт : 128 Кбит/сек
Каналы : 2 канала
Частота : 48,0 КГц
Метод сжатия : С потерями
Размер потока : 79,6 Мбайт (8%)
Выравнивание : Соединение по промежуткам
Продолжительность промежутка : 24 мс. (0,60 видеокадр)
Время предзагрузки промежутка : 192 мс.
Заголовок : 1984-04-24_1
Общее
Полное имя : F:\Что.Где.Когда.Все.сезоны\1984\1984-12-29.avi
Формат : AVI
Формат/Информация : Audio Video Interleave
Профиль формата : OpenDML
Настройки формата : rec
Размер файла : 727 Мбайт
Продолжительность : 1 ч. 50 м.
Общий поток : 919 Кбит/сек
Программа кодирования : AVI-Mux GUI 1.17.8.3, Feb 16 201019:42:50
Видео
Идентификатор : 0
Формат : MPEG-4 Visual
Профиль формата : Advanced Simple@L5
Параметр BVOP формата : 2
Параметр QPel формата : Нет
Параметр GMC формата : Без точки перехода
Параметр матрицы формата : Default (H.263)
Режим смешивания : Сжатый битовый поток
Идентификатор кодека : XVID
Идентификатор кодека/Подсказка : XviD
Продолжительность : 1 ч. 50 м.
Битрейт : 783 Кбит/сек
Ширина : 544 пикселя
Высота : 404 пикселя
Соотношение сторон : 4:3
Частота кадров : 25,000 кадров/сек
Цветовое пространство : YUV
Субдискретизация насыщенности : 4:2:0
Битовая глубина : 8 бит
Тип развёртки : Прогрессивная
Метод сжатия : С потерями
Бит/(Пиксели*Кадры) : 0.142
Размер потока : 619 Мбайт (85%)
Библиотека кодирования : XviD 64
Аудио
Идентификатор : 1
Формат : MPEG Audio
Версия формата : Version 1
Профиль формата : Layer 3
Режим : Joint stereo
Расширение режима : MS Stereo
Идентификатор кодека : 55
Идентификатор кодека/Подсказка : MP3
Продолжительность : 1 ч. 50 м.
Вид битрейта : Постоянный
Битрейт : 128 Кбит/сек
Каналы : 2 канала
Частота : 48,0 КГц
Метод сжатия : С потерями
Размер потока : 101 Мбайт (14%)
Выравнивание : Соединение по промежуткам
Продолжительность промежутка : 24 мс. (0,60 видеокадр)
Время предзагрузки промежутка : 192 мс.
Заголовок : 1984-12-29_1
Общее
Полное имя : F:\Что.Где.Когда.Все.сезоны\2008\2008-04-05.avi
Формат : AVI
Формат/Информация : Audio Video Interleave
Профиль формата : OpenDML
Настройки формата : rec
Размер файла : 462 Мбайт
Продолжительность : 57 м.
Общий поток : 1119 Кбит/сек
Программа кодирования : AVI-Mux GUI 1.17.8.3, Feb 16 201019:42:50
Видео
Идентификатор : 0
Формат : MPEG-4 Visual
Профиль формата : Advanced Simple@L5
Параметр BVOP формата : 2
Параметр QPel формата : Нет
Параметр GMC формата : Без точки перехода
Параметр матрицы формата : Default (H.263)
Режим смешивания : Сжатый битовый поток
Идентификатор кодека : XVID
Идентификатор кодека/Подсказка : XviD
Продолжительность : 57 м.
Битрейт : 982 Кбит/сек
Ширина : 544 пикселя
Высота : 404 пикселя
Соотношение сторон : 4:3
Частота кадров : 25,000 кадров/сек
Цветовое пространство : YUV
Субдискретизация насыщенности : 4:2:0
Битовая глубина : 8 бит
Тип развёртки : Прогрессивная
Метод сжатия : С потерями
Бит/(Пиксели*Кадры) : 0.179
Размер потока : 405 Мбайт (88%)
Библиотека кодирования : XviD 1.2.1 (UTC 2008-12-04)
Аудио
Идентификатор : 1
Формат : MPEG Audio
Версия формата : Version 1
Профиль формата : Layer 3
Режим : Joint stereo
Расширение режима : MS Stereo
Идентификатор кодека : 55
Идентификатор кодека/Подсказка : MP3
Продолжительность : 57 м.
Вид битрейта : Постоянный
Битрейт : 128 Кбит/сек
Каналы : 2 канала
Частота : 48,0 КГц
Метод сжатия : С потерями
Размер потока : 52,8 Мбайт (11%)
Выравнивание : Соединение по промежуткам
Продолжительность промежутка : 24 мс. (0,60 видеокадр)
Время предзагрузки промежутка : 192 мс.
Заголовок : 2008-04-05_track2_rus1
Общее
Полное имя : F:\Что.Где.Когда.Все.сезоны\2008\2008-04-12.avi
Формат : AVI
Формат/Информация : Audio Video Interleave
Профиль формата : OpenDML
Настройки формата : rec
Размер файла : 464 Мбайт
Продолжительность : 1 ч. 9 м.
Общий поток : 935 Кбит/сек
Программа кодирования : AVI-Mux GUI 1.17.8.3, Feb 16 201019:42:50
Видео
Идентификатор : 0
Формат : MPEG-4 Visual
Профиль формата : Advanced Simple@L5
Параметр BVOP формата : 2
Параметр QPel формата : Нет
Параметр GMC формата : Без точки перехода
Параметр матрицы формата : Default (H.263)
Режим смешивания : Сжатый битовый поток
Идентификатор кодека : XVID
Идентификатор кодека/Подсказка : XviD
Продолжительность : 1 ч. 9 м.
Битрейт : 798 Кбит/сек
Ширина : 544 пикселя
Высота : 404 пикселя
Соотношение сторон : 4:3
Частота кадров : 25,000 кадров/сек
Цветовое пространство : YUV
Субдискретизация насыщенности : 4:2:0
Битовая глубина : 8 бит
Тип развёртки : Прогрессивная
Метод сжатия : С потерями
Бит/(Пиксели*Кадры) : 0.145
Размер потока : 396 Мбайт (85%)
Библиотека кодирования : XviD 1.2.1 (UTC 2008-12-04)
Аудио
Идентификатор : 1
Формат : MPEG Audio
Версия формата : Version 1
Профиль формата : Layer 3
Режим : Joint stereo
Расширение режима : MS Stereo
Идентификатор кодека : 55
Идентификатор кодека/Подсказка : MP3
Продолжительность : 1 ч. 9 м.
Вид битрейта : Постоянный
Битрейт : 128 Кбит/сек
Каналы : 2 канала
Частота : 48,0 КГц
Метод сжатия : С потерями
Размер потока : 63,6 Мбайт (14%)
Выравнивание : Соединение по промежуткам
Продолжительность промежутка : 24 мс. (0,60 видеокадр)
Время предзагрузки промежутка : 192 мс.
Заголовок : 2008-04-12_track2_rus1
Общее
Полное имя : F:\Что.Где.Когда.Все.сезоны\2008\2008-04-19.avi
Формат : AVI
Формат/Информация : Audio Video Interleave
Профиль формата : OpenDML
Настройки формата : rec
Размер файла : 463 Мбайт
Продолжительность : 1 ч. 2 м.
Общий поток : 1040 Кбит/сек
Программа кодирования : AVI-Mux GUI 1.17.8.3, Feb 16 201019:42:50
Видео
Идентификатор : 0
Формат : MPEG-4 Visual
Профиль формата : Advanced Simple@L5
Параметр BVOP формата : 2
Параметр QPel формата : Нет
Параметр GMC формата : Без точки перехода
Параметр матрицы формата : Default (H.263)
Режим смешивания : Сжатый битовый поток
Идентификатор кодека : XVID
Идентификатор кодека/Подсказка : XviD
Продолжительность : 1 ч. 2 м.
Битрейт : 903 Кбит/сек
Ширина : 544 пикселя
Высота : 404 пикселя
Соотношение сторон : 4:3
Частота кадров : 25,000 кадров/сек
Цветовое пространство : YUV
Субдискретизация насыщенности : 4:2:0
Битовая глубина : 8 бит
Тип развёртки : Прогрессивная
Метод сжатия : С потерями
Бит/(Пиксели*Кадры) : 0.164
Размер потока : 402 Мбайт (87%)
Библиотека кодирования : XviD 1.2.1 (UTC 2008-12-04)
Аудио
Идентификатор : 1
Формат : MPEG Audio
Версия формата : Version 1
Профиль формата : Layer 3
Режим : Joint stereo
Расширение режима : MS Stereo
Идентификатор кодека : 55
Идентификатор кодека/Подсказка : MP3
Продолжительность : 1 ч. 2 м.
Вид битрейта : Постоянный
Битрейт : 128 Кбит/сек
Каналы : 2 канала
Частота : 48,0 КГц
Метод сжатия : С потерями
Размер потока : 57,0 Мбайт (12%)
Выравнивание : Соединение по промежуткам
Продолжительность промежутка : 24 мс. (0,60 видеокадр)
Время предзагрузки промежутка : 192 мс.
Заголовок : 2008-04-19_track2_rus1
Общее
Полное имя : F:\Что.Где.Когда.Все.сезоны\2008\2008-04-27.avi
Формат : AVI
Формат/Информация : Audio Video Interleave
Профиль формата : OpenDML
Настройки формата : rec
Размер файла : 463 Мбайт
Продолжительность : 1 ч. 3 м.
Общий поток : 1022 Кбит/сек
Программа кодирования : AVI-Mux GUI 1.17.8.3, Feb 16 201019:42:50
Видео
Идентификатор : 0
Формат : MPEG-4 Visual
Профиль формата : Advanced Simple@L5
Параметр BVOP формата : 2
Параметр QPel формата : Нет
Параметр GMC формата : Без точки перехода
Параметр матрицы формата : Default (H.263)
Режим смешивания : Сжатый битовый поток
Идентификатор кодека : XVID
Идентификатор кодека/Подсказка : XviD
Продолжительность : 1 ч. 3 м.
Битрейт : 886 Кбит/сек
Ширина : 544 пикселя
Высота : 404 пикселя
Соотношение сторон : 4:3
Частота кадров : 25,000 кадров/сек
Цветовое пространство : YUV
Субдискретизация насыщенности : 4:2:0
Битовая глубина : 8 бит
Тип развёртки : Прогрессивная
Метод сжатия : С потерями
Бит/(Пиксели*Кадры) : 0.161
Размер потока : 401 Мбайт (87%)
Библиотека кодирования : XviD 1.2.1 (UTC 2008-12-04)
Аудио
Идентификатор : 1
Формат : MPEG Audio
Версия формата : Version 1
Профиль формата : Layer 3
Режим : Joint stereo
Расширение режима : MS Stereo
Идентификатор кодека : 55
Идентификатор кодека/Подсказка : MP3
Продолжительность : 1 ч. 3 м.
Вид битрейта : Постоянный
Битрейт : 128 Кбит/сек
Каналы : 2 канала
Частота : 48,0 КГц
Метод сжатия : С потерями
Размер потока : 57,9 Мбайт (13%)
Выравнивание : Соединение по промежуткам
Продолжительность промежутка : 24 мс. (0,60 видеокадр)
Время предзагрузки промежутка : 192 мс.
Заголовок : 2008-04-27_track2_rus1
Общее
Полное имя : F:\Что.Где.Когда.Все.сезоны\2008\2008-05-17.avi
Формат : AVI
Формат/Информация : Audio Video Interleave
Профиль формата : OpenDML
Настройки формата : rec
Размер файла : 356 Мбайт
Продолжительность : 49 м.
Общий поток : 1000 Кбит/сек
Программа кодирования : AVI-Mux GUI 1.17.8.3, Feb 16 201019:42:50
Видео
Идентификатор : 0
Формат : MPEG-4 Visual
Профиль формата : Advanced Simple@L5
Параметр BVOP формата : 2
Параметр QPel формата : Нет
Параметр GMC формата : Без точки перехода
Параметр матрицы формата : Default (H.263)
Режим смешивания : Сжатый битовый поток
Идентификатор кодека : XVID
Идентификатор кодека/Подсказка : XviD
Продолжительность : 49 м.
Битрейт : 863 Кбит/сек
Ширина : 544 пикселя
Высота : 404 пикселя
Соотношение сторон : 4:3
Частота кадров : 25,000 кадров/сек
Цветовое пространство : YUV
Субдискретизация насыщенности : 4:2:0
Битовая глубина : 8 бит
Тип развёртки : Прогрессивная
Метод сжатия : С потерями
Бит/(Пиксели*Кадры) : 0.157
Размер потока : 308 Мбайт (86%)
Библиотека кодирования : XviD 1.2.1 (UTC 2008-12-04)
Аудио
Идентификатор : 1
Формат : MPEG Audio
Версия формата : Version 1
Профиль формата : Layer 3
Режим : Joint stereo
Расширение режима : MS Stereo
Идентификатор кодека : 55
Идентификатор кодека/Подсказка : MP3
Продолжительность : 49 м.
Вид битрейта : Постоянный
Битрейт : 128 Кбит/сек
Каналы : 2 канала
Частота : 48,0 КГц
Метод сжатия : С потерями
Размер потока : 45,6 Мбайт (13%)
Выравнивание : Соединение по промежуткам
Продолжительность промежутка : 24 мс. (0,60 видеокадр)
Время предзагрузки промежутка : 192 мс.
Заголовок : 2008-05-17_track2_rus1
Общее
Полное имя : F:\Что.Где.Когда.Все.сезоны\2008\2008-05-24.avi
Формат : AVI
Формат/Информация : Audio Video Interleave
Профиль формата : OpenDML
Настройки формата : rec
Размер файла : 463 Мбайт
Продолжительность : 1 ч. 3 м.
Общий поток : 1025 Кбит/сек
Программа кодирования : AVI-Mux GUI 1.17.8.3, Feb 16 201019:42:50
Видео
Идентификатор : 0
Формат : MPEG-4 Visual
Профиль формата : Advanced Simple@L5
Параметр BVOP формата : 2
Параметр QPel формата : Нет
Параметр GMC формата : Без точки перехода
Параметр матрицы формата : Default (H.263)
Режим смешивания : Сжатый битовый поток
Идентификатор кодека : XVID
Идентификатор кодека/Подсказка : XviD
Продолжительность : 1 ч. 3 м.
Битрейт : 888 Кбит/сек
Ширина : 544 пикселя
Высота : 404 пикселя
Соотношение сторон : 4:3
Частота кадров : 25,000 кадров/сек
Цветовое пространство : YUV
Субдискретизация насыщенности : 4:2:0
Битовая глубина : 8 бит
Тип развёртки : Прогрессивная
Метод сжатия : С потерями
Бит/(Пиксели*Кадры) : 0.162
Размер потока : 401 Мбайт (87%)
Библиотека кодирования : XviD 1.2.1 (UTC 2008-12-04)
Аудио
Идентификатор : 1
Формат : MPEG Audio
Версия формата : Version 1
Профиль формата : Layer 3
Режим : Joint stereo
Расширение режима : MS Stereo
Идентификатор кодека : 55
Идентификатор кодека/Подсказка : MP3
Продолжительность : 1 ч. 3 м.
Вид битрейта : Постоянный
Битрейт : 128 Кбит/сек
Каналы : 2 канала
Частота : 48,0 КГц
Метод сжатия : С потерями
Размер потока : 57,8 Мбайт (12%)
Выравнивание : Соединение по промежуткам
Продолжительность промежутка : 24 мс. (0,60 видеокадр)
Время предзагрузки промежутка : 192 мс.
Заголовок : 2008-05-24_track2_rus1
Общее
Полное имя : F:\Что.Где.Когда.Все.сезоны\2008\2008-05-31.avi
Формат : AVI
Формат/Информация : Audio Video Interleave
Профиль формата : OpenDML
Настройки формата : rec
Размер файла : 462 Мбайт
Продолжительность : 1 ч. 0 м.
Общий поток : 1064 Кбит/сек
Программа кодирования : AVI-Mux GUI 1.17.8.3, Feb 16 201019:42:50
Видео
Идентификатор : 0
Формат : MPEG-4 Visual
Профиль формата : Advanced Simple@L5
Параметр BVOP формата : 2
Параметр QPel формата : Нет
Параметр GMC формата : Без точки перехода
Параметр матрицы формата : Default (H.263)
Режим смешивания : Сжатый битовый поток
Идентификатор кодека : XVID
Идентификатор кодека/Подсказка : XviD
Продолжительность : 1 ч. 0 м.
Битрейт : 927 Кбит/сек
Ширина : 544 пикселя
Высота : 404 пикселя
Соотношение сторон : 4:3
Частота кадров : 25,000 кадров/сек
Цветовое пространство : YUV
Субдискретизация насыщенности : 4:2:0
Битовая глубина : 8 бит
Тип развёртки : Прогрессивная
Метод сжатия : С потерями
Бит/(Пиксели*Кадры) : 0.169
Размер потока : 403 Мбайт (87%)
Библиотека кодирования : XviD 1.2.1 (UTC 2008-12-04)
Аудио
Идентификатор : 1
Формат : MPEG Audio
Версия формата : Version 1
Профиль формата : Layer 3
Режим : Joint stereo
Расширение режима : MS Stereo
Идентификатор кодека : 55
Идентификатор кодека/Подсказка : MP3
Продолжительность : 1 ч. 0 м.
Вид битрейта : Постоянный
Битрейт : 128 Кбит/сек
Каналы : 2 канала
Частота : 48,0 КГц
Метод сжатия : С потерями
Размер потока : 55,6 Мбайт (12%)
Выравнивание : Соединение по промежуткам
Продолжительность промежутка : 24 мс. (0,60 видеокадр)
Время предзагрузки промежутка : 192 мс.
Заголовок : 2008-05-31_track2_rus1
Общее
Полное имя : F:\Что.Где.Когда.Все.сезоны\2008\2008-06-08.avi
Формат : AVI
Формат/Информация : Audio Video Interleave
Профиль формата : OpenDML
Настройки формата : rec
Размер файла : 463 Мбайт
Продолжительность : 1 ч. 1 м.
Общий поток : 1052 Кбит/сек
Программа кодирования : AVI-Mux GUI 1.17.8.3, Feb 16 201019:42:50
Видео
Идентификатор : 0
Формат : MPEG-4 Visual
Профиль формата : Advanced Simple@L5
Параметр BVOP формата : 2
Параметр QPel формата : Нет
Параметр GMC формата : Без точки перехода
Параметр матрицы формата : Default (H.263)
Режим смешивания : Сжатый битовый поток
Идентификатор кодека : XVID
Идентификатор кодека/Подсказка : XviD
Продолжительность : 1 ч. 1 м.
Битрейт : 915 Кбит/сек
Ширина : 544 пикселя
Высота : 404 пикселя
Соотношение сторон : 4:3
Частота кадров : 25,000 кадров/сек
Цветовое пространство : YUV
Субдискретизация насыщенности : 4:2:0
Битовая глубина : 8 бит
Тип развёртки : Прогрессивная
Метод сжатия : С потерями
Бит/(Пиксели*Кадры) : 0.167
Размер потока : 402 Мбайт (87%)
Библиотека кодирования : XviD 1.2.1 (UTC 2008-12-04)
Аудио
Идентификатор : 1
Формат : MPEG Audio
Версия формата : Version 1
Профиль формата : Layer 3
Режим : Joint stereo
Расширение режима : MS Stereo
Идентификатор кодека : 55
Идентификатор кодека/Подсказка : MP3
Продолжительность : 1 ч. 1 м.
Вид битрейта : Постоянный
Битрейт : 128 Кбит/сек
Каналы : 2 канала
Частота : 48,0 КГц
Метод сжатия : С потерями
Размер потока : 56,3 Мбайт (12%)
Выравнивание : Соединение по промежуткам
Продолжительность промежутка : 24 мс. (0,60 видеокадр)
Время предзагрузки промежутка : 192 мс.
Заголовок : 2008-06-08_track2_rus1
Общее
Полное имя : F:\Что.Где.Когда.Все.сезоны\2016\2016-11-20.avi
Формат : AVI
Формат/Информация : Audio Video Interleave
Размер файла : 869 Мбайт
Продолжительность : 1 ч. 0 м.
Общий поток : 2001 Кбит/сек
Программа кодирования : VirtualDubMod 1.5.10.3 (build 2550/release)
Библиотека кодирования : VirtualDubMod build 2550/release
Видео
Идентификатор : 0
Формат : MPEG-4 Visual
Профиль формата : Advanced Simple@L5
Параметр BVOP формата : 2
Параметр QPel формата : Нет
Параметр GMC формата : Без точки перехода
Параметр матрицы формата : Выборочная
Идентификатор кодека : XVID
Идентификатор кодека/Подсказка : XviD
Продолжительность : 1 ч. 0 м.
Битрейт : 1800 Кбит/сек
Ширина : 720 пикселей
Высота : 400 пикселей
Соотношение сторон : 16:9
Частота кадров : 25,000 кадров/сек
Цветовое пространство : YUV
Субдискретизация насыщенности : 4:2:0
Битовая глубина : 8 бит
Тип развёртки : Прогрессивная
Метод сжатия : С потерями
Бит/(Пиксели*Кадры) : 0.250
Размер потока : 781 Мбайт (90%)
Библиотека кодирования : XviD 73
Аудио
Идентификатор : 1
Формат : AC-3
Формат/Информация : Audio Coding 3
Расширение режима : CM (complete main)
Параметр Endianness формата : Big
Идентификатор кодека : 2000
Продолжительность : 1 ч. 0 м.
Вид битрейта : Постоянный
Битрейт : 192 Кбит/сек
Каналы : 2 канала
Расположение каналов : Front: L R
Частота : 48,0 КГц
Частота кадров : 31,250 кадров/сек (1536 spf)
Метод сжатия : С потерями
Размер потока : 83,3 Мбайт (10%)
Выравнивание : Разделение по промежуткам
Продолжительность промежутка : 40 мс. (1,00 видеокадр)
Время предзагрузки промежутка : 500 мс.
Скриншот c названием фильма
Скриншоты
Download
Чтобы скачать .torrent файл необходима регистрация
Сайт не распространяет и не хранит электронные версии произведений, а лишь предоставляет доступ к создаваемому пользователями каталогу ссылок на торрент-файлы, которые содержат только списки хеш-сумм
[Профиль]  [ЛС] 

ylnian

Стаж: 6 лет 11 месяцев

Сообщений: 649

ylnian · 05-Янв-17 10:16 (спустя 16 мин., ред. 06-Янв-17 14:03)

[Цитировать] 

Прошу администрацию пропустить данную мою раздачу в качестве исключения как Временную (Т).
Со временем к следующему обновлению перекодирую все серии в XViD / MP3 128 kbps, обрежу недокропы и пр.
Буду раз в год обновлять раздачу, добавляя новый сезон и новые серии
На данный момент это самая полная подборка игр "Что? Где? Когда?" на просторах рунета.
В данной сборке отсутствуют 53 выпуска из 450 (по данным chgk.tvigra.ru/letopis/):
- 1975 - 1 игра
- 1976 - 1 игра
- 1977 - 1 игра
- 1978 - 2 игры
- 1979 - 8 игр
- 1980 - 10 игр: 30 января, 27 февраля, 9 апреля, 23 апреля, 5 июня, 8 июля, 20 августа, 3 октября, 13 ноября, 27 ноября
- 1981 - 5 игр
- 1982 - 5 игр: 9 февраля, 11 марта, 31 мая, 1 июля, 1 декабря
- 1983 - 4 игры: 28 июня, 11 августа, 18 октября, 6 декабря
- 1984 - 4 игры: 29 мая, 31 июля, 30 октября, 30 ноября
- 1985 - 3 игры: 28 сентября, 26 октября, 30 ноября
- 1986 - 4 игры: 11 апреля, 16 мая, 14 июня, 24 октября
- 1989 - 1 игра: 30 декабря
- 1990 - 1 игра: 8 декабря
- 1994 - 1 игра: 21 мая
- 2000 - 2 игры: 10 сентября, 17 сентября
Прошу отозваться всех, у кого есть в любом качестве данные выпуски - готов их выкупить у Вас!
[Профиль]  [ЛС] 

Chicago55

Стаж: 3 года

Сообщений: 140


Chicago55 · 06-Янв-17 17:39 (спустя 1 день 7 часов)

[Цитировать] 

Скажите пожалуйста. В Вашей раздаче есть игры, которых нет на рутрекере?, или Вы просто собрали в одну раздачу имеющейся материал?
Заранее спасибо за ответ.
[Профиль]  [ЛС] 

ylnian

Стаж: 6 лет 11 месяцев

Сообщений: 649

ylnian · 06-Янв-17 19:15 (спустя 1 час 36 мин., ред. 06-Янв-17 19:15)

[Цитировать] 

Chicago55
Здесь собрана сборная солянка со всего рунета. Я сравнивал разные релизы одних и тех же выпусков и выбирал наиболее полные и качественные.
Да, некоторых выпусков на рутрекере до сего дня не было, а некоторые были, но в значительно более худшем качестве.
[Профиль]  [ЛС] 

andpet72

Стаж: 6 лет 11 месяцев

Сообщений: 49


andpet72 · 06-Янв-17 23:39 (спустя 4 часа)

[Цитировать] 

меня тоже интересует что не хватает из этой сборки http://maintracker.org/forum/viewtopic.php?t=3360661 хочю отсюда просто докачать чего у меня нету ???
[Профиль]  [ЛС] 

Chicago55

Стаж: 3 года

Сообщений: 140


Chicago55 · 07-Янв-17 00:29 (спустя 50 мин.)

[Цитировать] 

Скажите пожалуйста что конкретно из не имеющегося до этого в сети Вы добавили?. Просто у меня есть уже коллекция, и не хочется перекачивать. Объем не маленький
[Профиль]  [ЛС] 

ylnian

Стаж: 6 лет 11 месяцев

Сообщений: 649

ylnian · 07-Янв-17 08:18 (спустя 7 часов, ред. 07-Янв-17 10:39)

[Цитировать] 

Chicago55 и andpet72
Под дискетой со словами "Скачать .torrent" есть волшебная кнопка "Список файлов" - любой желающий может сам открыть данные списки и сравнить.

Если размеры файлов отличаются, то это значит, что в моей раздаче данный выпуск представлен в лучшем качестве / с большей продолжительностью - я тщательным образом сравнивал каждый выпуск и выбирал из всех представленых в рунете самый лучший!
[Профиль]  [ЛС] 

Galcev777

Стаж: 6 лет 11 месяцев

Сообщений: 40

Galcev777 · 07-Янв-17 19:16 (спустя 10 часов)

[Цитировать] 

ylnian, спасибо за неоценимую работу!
[Профиль]  [ЛС] 

ogsym

Стаж: 2 года 1 месяц

Сообщений: 22

ogsym · 07-Янв-17 22:41 (спустя 3 часа)

[Цитировать] 

ylnian писал(а):
72167458Со временем к следующему обновлению перекодирую все серии в XViD / MP3 128 kbps, обрежу недокропы и пр.
От перекодирования ведь, скорее всего, ухудшится качество.
[Профиль]  [ЛС] 

liudys

Стаж: 4 года 3 месяца

Сообщений: 82


liudys · 11-Янв-17 02:04 (спустя 3 дня)

[Цитировать] 

Болсойе спасибо вам, господин за великолепную работу
[Профиль]  [ЛС] 

KostyaKos

Top User 06

Стаж: 9 лет 10 месяцев

Сообщений: 90

KostyaKos · 12-Янв-17 00:10 (спустя 22 часа)

[Цитировать] 

ммм, а нафига нормальный мкв перекодировать в древний иксвид? :\ Может, все-таки, наоборот?
[Профиль]  [ЛС] 

poldnik1

Стаж: 7 лет 8 месяцев

Сообщений: 268

poldnik1 · 12-Янв-17 08:15 (спустя 8 часов)

[Цитировать] 

по сути, ничего нового в этой раздаче нет, всё те же отсутствующие игры 80-х и 90-х...
так что, если качали предыдущую сборку, эту качать не стоит, разве что, сравнить по качеству...
но качество той сборки меня вполне устраивает, да и mkv всё-таки предпочтительней
[Профиль]  [ЛС] 

ogl0

Стаж: 7 лет 11 месяцев

Сообщений: 1047

ogl0 · 26-Янв-17 20:22 (спустя 14 дней)

[Цитировать] 

Вообще то сейчас показывают по каналу Вопросы и ответы игры тех лет.Если будет возможность запишу
[Профиль]  [ЛС] 

Фолиант65

Стаж: 3 года 10 месяцев

Сообщений: 250


Фолиант65 · 27-Янв-17 15:24 (спустя 19 часов)

[Цитировать] 

В настоящий момент на канале "Вопросы и ответы" показывают серию игр 1997 года, самая интересная серия с фишками. Кто-нибудь записывает?
скрытый текст
[Профиль]  [ЛС] 

ogl0

Стаж: 7 лет 11 месяцев

Сообщений: 1047

ogl0 · 27-Янв-17 16:11 (спустя 46 мин.)

[Цитировать] 

Фолиант65
я думал,но тут качество нормальное.дойдут до отсутствующих запишу
[Профиль]  [ЛС] 

Cinkopik

Стаж: 7 лет 11 месяцев

Сообщений: 75


Cinkopik · 28-Янв-17 19:01 (спустя 1 день 2 часа)

[Цитировать] 

Спасибо, наконец то нашел и пересмотрел одну из величайших игр в истории игры - поражение команды Блинова 19 июня 1993 года. Гениальный Федор Двинятин смотрелся в этот вечер явно лучше Друзя, и тем драматичнее была его ошибка в решающий раунд на уникальном вопросе про противоположность банальности мысли. Расстроенный Федор оскорбляет Ворошилова и выходит из-за стола. Но тут уже проявился гений ведущего, который не допустил роспуска этой замечательной команды и согласился на дополнительный вопрос, отлично понимая, что знатоки не могут на него не ответить...
[Профиль]  [ЛС] 

Aids

VIP (Заслуженный)

Стаж: 7 лет 8 месяцев

Сообщений: 3609

Aids · 03-Фев-17 07:23 (спустя 5 дней)

[Цитировать] 

Цитата:
Запрещается объединять в одной раздаче релизы в разных контейнерах.
T Временная

[Профиль]  [ЛС] 

ogl0

Стаж: 7 лет 11 месяцев

Сообщений: 1047

ogl0 · 05-Фев-17 01:38 (спустя 1 день 18 часов)

[Цитировать] 

Завтра попытаюсь записать игру финал года 97.Тут я так понимаю записана она с кассеты,поэтому будет качество лучше
[Профиль]  [ЛС] 

Фолиант65

Стаж: 3 года 10 месяцев

Сообщений: 250


Фолиант65 · 05-Фев-17 02:30 (спустя 51 мин.)

[Цитировать] 

ogl0 писал(а):
72416996Завтра попытаюсь записать игру финал года 97.Тут я так понимаю записана она с кассеты,поэтому будет качество лучше
Да, следующий выпуск финал зимних игр 1997 года. А что потом они покажут? Летние игры 1998 года?
[Профиль]  [ЛС] 

ogl0

Стаж: 7 лет 11 месяцев

Сообщений: 1047

ogl0 · 05-Фев-17 03:09 (спустя 39 мин., ред. 05-Фев-17 19:26)

[Цитировать] 

На след неделе будут показываться игры 2010 года,которые тут есть....
[Профиль]  [ЛС] 

333r333

Стаж: 7 лет 10 месяцев

Сообщений: 4


333r333 · 09-Фев-17 22:07 (спустя 4 дня)

[Цитировать] 

Автор,это лучшая раздача на рутрекере! Спасибо!
[Профиль]  [ЛС] 

1416-18

Стаж: 5 лет 2 месяца

Сообщений: 72


1416-18 · 14-Мар-17 20:01 (спустя 1 месяц 4 дня)

[Цитировать] 

все пленки 1978 года размагничены, информация утеряна. это инфа с офф сайта
[Профиль]  [ЛС] 

Esken

Стаж: 9 лет 2 месяца

Сообщений: 29


Esken · 17-Апр-17 23:50 (спустя 1 месяц 3 дня, ред. 17-Апр-17 23:50)

[Цитировать] 

Респект за огромный труд! Встаю на раздачу этой Великой Игры всех времен и народов!
Раньше смотрел все записи на ютубе. Сейчас какой-то беспредел там. Каждые 10 минут идет видео реклама.
Так что Рутрекер навсегда!!!
Сейчас заметил на примере "Зимняя серия 2008г., 4-я игра", что на ютубе качество видео немного получше.
[Профиль]  [ЛС] 

Mary08011973

Стаж: 3 года 8 месяцев

Сообщений: 243


Mary08011973 · 09-Июл-17 19:18 (спустя 2 месяца 21 день, ред. 10-Июл-17 17:40)

[Цитировать] 

А вот это, например, кто?
Cinkopik писал(а):
72362404наконец то нашел и пересмотрел одну из величайших игр в истории игры - поражение команды Блинова 19 июня 1993 года. Гениальный Федор Двинятин смотрелся в этот вечер явно лучше Друзя, и тем драматичнее была его ошибка в решающий раунд на уникальном вопросе про противоположность банальности мысли. Расстроенный Федор оскорбляет Ворошилова и выходит из-за стола. Но тут уже проявился гений ведущего, который не допустил роспуска этой замечательной команды и согласился на дополнительный вопрос, отлично понимая, что знатоки не могут на него не ответить...
скрытый текст
Через 22 года ответ на этот вопрос был дан в музыкальной паузе.
http://www.youtube.com/watch?v=vwjI5auiJMg
http://www.youtube.com/watch?v=w7UqcewDRnM
Причем есть сведения, что игрок, который купил команде победу, и исполнитель арии - однофамильцы.
[Профиль]  [ЛС] 

BBB28

Стаж: 10 лет 1 месяц

Сообщений: 494


BBB28 · 15-Июл-17 19:01 (спустя 5 дней)

[Цитировать] 

Спасибо.
[Профиль]  [ЛС] 

Mary08011973

Стаж: 3 года 8 месяцев

Сообщений: 243


Mary08011973 · 17-Июл-17 13:50 (спустя 1 день 18 часов, ред. 17-Июл-17 13:50)

[Цитировать] 

Между прочим, это единственная ссылка на игрока, которую по этой фамилии находит ютуб - остальные на певца.
ylnian писал(а):
На данный момент это самая полная подборка игр "Что? Где? Когда?" на просторах рунета.
В данной сборке отсутствуют 53 выпуска из 450 (по данным chgk.tvigra.ru/letopis/):
- 1975 - 1 игра
- 1976 - 1 игра
- 1977 - 1 игра
- 1978 - 2 игры
- 1979 - 8 игр
- 1980 - 10 игр: 30 января, 27 февраля, 9 апреля, 23 апреля, 5 июня, 8 июля, 20 августа, 3 октября, 13 ноября, 27 ноября
- 1981 - 5 игр
- 1982 - 5 игр: 9 февраля, 11 марта, 31 мая, 1 июля, 1 декабря
- 1983 - 4 игры: 28 июня, 11 августа, 18 октября, 6 декабря
- 1984 - 4 игры: 29 мая, 31 июля, 30 октября, 30 ноября
- 1985 - 3 игры: 28 сентября, 26 октября, 30 ноября
- 1986 - 4 игры: 11 апреля, 16 мая, 14 июня, 24 октября
- 1989 - 1 игра: 30 декабря
- 1990 - 1 игра: 8 декабря
- 1994 - 1 игра: 21 мая
- 2000 - 2 игры: 10 сентября, 17 сентября
Прошу отозваться всех, у кого есть в любом качестве данные выпуски - готов их выкупить у Вас!
Эксклюзивы:
83 - от июня и августа реклама в сентябре и декабре (вторая игра), от августа, октября и декабря (первая игра) вопрос про валторну, отвечал Латыпов, и музыкальные паузы из фильма "В гостях у клуба";
84 - от октября и ноября музыкальные паузы из фильма "В гостях у клуба";
85 - от сентября вопрос про вечерний звон, отвечала Герасимова, и музыкальная пауза из фильма "В гостях у клуба";
86 - от апреля или мая (ошибка не то на сайте, повторенная в трансляции, не то в титрах ноября) вопрос про сумку и петуха из архива Орловой-Сигеевой, от октября знакомство и голосование;
89 - от декабря вопрос про вологодское масло (повторен в 99 другим телезрителем, отвечал Аскеров) из архива сестер Зейналовых, решающий раунд (вопрос Чарушева про Сахарова - тогда супер-блиц был аналогом не решающего раунда, как теперь, а возврата минуты в кредит);
90 - от декабря (первая игра) знакомство и ретро-кадры в финале (вопрос Климовича про Татьяну - тогда они с Вавиловым еще не были в одной команде).
А вот и моя загадка без ответа.
Железная логика.
В период 80-85 и после 00 писали имена отвечающих.
Перечислять отвечающих после 00 - терпения не хватит.
В 80 отвечали Бялко, Седин, Ильин, Еремин, Лутовинов, Гурков.
В 82 отвечали Анохин, Еремин, Ершов, Бартышев, Ильин, Каморин, Бударёв, Силантьев, Пестов, Кравченко, Царьков, Наумова, Лутовинов, Овчинников, Черных, Шангин, Дубов, Владимирский, Бялко.
В 83 писали также имена выбывших.
Отвечали Бородин, Кравченко, Силантьев, Чинёнова, Кармазин, Рубин, Блаженов, Назаренко, Зайцев, Летавина, Гончаренко.
Выбыли Еремин, Лутовинов, Ильин, Гурков, Бартышев, Анохин, Дубов, Черных, Нерсесов, Седин, Шангин, Друзь, Хандогина, Строганова, Малинаукас, брат Латыпова, Данияров, Аульченко, Кармазин, Бородин, Силантьев, Рубин, Чинёнова, Кравченко, Демиховская, Пестов, Валетов.
В 84 отвечали Шангин, Ильин, Кармазин, Силантьев, Еремин, Друзь, Владимирский, Блаженов, Летавина, Латыпов.
В 85 отвечали Блаженов, Гончаренко, Латыпов, Говорушкина, Белов, Бородин, Еремин, Каморин, брат Латыпова.
В 86-00 имена отвечающих не писали (кроме болгарских игр).
Вот некоторые ответы 87: про банку, про чиновника, про музыкальную паузу.
Вот некоторые ответы болгарских игр: про миф, про Сирано, про наследника, про кукол, про женщину, про черный ящик.
Вот некоторые ответы периода 90-00: про подворотню, про раба, про волков, про медитацию.
Болгарские игры в прямом эфире я не видела.
А теперь - внимание, вопрос: откуда я знаю, что Долгова Олегом зовут?
На сайте "летопись игры" приведены 8 вариантов ответа (у вас они датированы с точностью до числа, у меня до месяца):
1 - 30 января 80;
2 - 8 июля 80;
3 - 18 октября 83;
4 - 29 мая 84;
5 - 28 сентября 85;
6 - 26 октября 85;
7 - 30 ноября 85;
8 - 24 октября 86.
Какой из них правильный? Если экстраполировать по шрифтам в сохранившихся играх (я помню, что написано было крупно), можно смело отбросить 85, когда писали мелко, и 86, когда не писали вообще. Но экстраполяция может быть и ложной - в декабре 85 в толпе мелькает некто с оранжевыми погонами, его оправа круглая, как у игрока, который в феврале 87 Высоцкого пел, а в ноябре 87 улитку получил, но в музыкальной паузе от сентября того же 85 в толпе мелькает некто в коричневом, по всем параметрам тот же самый, а его оправа совсем не круглая. Конечно, Долгов - это не Градский, который за всё время с мая 88 по ноябрь 13 поменял только линзы в постоянной оправе (хотя оба фанаты Высоцкого), но и не Молчанов, у которого чуть ли не каждую игру новая модель, а количество очков Блинова вообще уже не поддается учету.
[Профиль]  [ЛС] 
 
Ответить
Loading...
Error