Адрес РуТрекера для пользователей РФ - MainTracker.org

Расскажи друзьям:  

Искусство умирать / Искусство смерти / The Art of Dying (Уингс Хаузер / Wings Hauser) [1991, США, криминал, триллер, DVD9 (Custom)] AVO (Дольский) + Original Eng

Страницы:  1

Ответить
Автор
Сообщение

Lucian666

Стаж: 9 лет 5 месяцев

Сообщений: 2950

Lucian666 · 29-Дек-16 00:06 (4 месяца 26 дней назад, ред. 10-Янв-17 22:42)

[Цитировать] 

Искусство умирать / Искусство смерти / The Art of Dying
Страна: США
Студия: PM Entertainment
Жанр: криминал, триллер
Год выпуска: 1991
Продолжительность: 1.36.09
Перевод: Авторский (одноголосый закадровый) Дольский
Cубтитры: нет
Оригинальная аудиодорожка: английский
Режиссер: Уингс Хаузер / Wings Hauser
В ролях: Уингз Хаузер, Кэтлин Кинмонт, Майкл Поллард
Описание: Джек-полицейский детектив, работающий в Голливуде. В городе начинает появляться множество трупов молодых людей. В процессе расследования Джек постепенно погружается в мир очень сомнительного кинобизнеса. Нескольким молодым и многообещающим актерам и актрисам, которые мечтают о звездной карьере, двое загадочных режиссеров обещают главные роли в своих фильмах. Но цена этой роли есть их собственная жизнь. Извращенцы занимаются тем, что прямо перед камерой убивают своих проходящих пробы актеров, повторяя сцены смертей из самых известных фильмов ужасов: «Психоз» (1960), «Техасская резня бензопилой» (1974)…
Неплохой фильм, показывающий очередные темные стороны Голливуда. Аналогичную идею для своей книги «Игра на чужом поле» использовала «писательница» Александра Маринина.
Доп. информация: Русская звуковая дорожка взята с этой раздачи http://maintracker.org/forum/viewtopic.php?t=4649638 автору большое сасибо.
За синхроницацию дорожки огромное спасибо Нордер.
При пересборе двд были использованы программы:
VirtualDubMod_1_5_10_2_All_inclusive - извлечение русской дорожки из рипа
PgcDemux - разделение компонентов диска на файлы
Muxman - мультиплексирование и авторинг DVD
VobBlanker - реавторинг DVD
Скрин завершения проекта
Сэмпл: http://sendfile.su/1294550
Тип релиза: DVD9 (Custom)
Контейнер: DVD-Video
Видео: NTSC 4:3 (720x480) VBR
Аудио: Russian (Dolby AC3, 192 Кбит/сек, 2 ch)
Аудио 2: English (Dolby AC3, 192 Кбит/сек, 2 ch)
DVDInfo
Title:
Size: 4.43 Gb ( 4 649 548 KBytes ) - DVD-9
Enabled regions: 1, 2, 3, 4, 5, 6, 7, 8
VTS_01 :
Play Length: 00:00:21+01:36:09+00:03:17+00:02:33+00:02:47+00:06:47+00:02:54+00:02:40+00:02:08+00:02:41+00:02:05+00:01:56+00:02:22+00:02:36+00:02:45+00:02:32+00:02:28+00:02:17+00:03:27+00:02:13
Video: NTSC 4:3 (720x480) VBR
Audio:
Russian (Dolby AC3, 2 ch)
English (Dolby AC3, 2 ch)
Menu Video:
NTSC 4:3 (720x480) VBR
Menu English Language Unit :
Root Menu
Audio Menu
Angle menu
MediaInfo
Общее
Полное имя : C:\DVD\The Art of Dying_1991\VIDEO_TS\VTS_01_2.VOB
Формат : MPEG-PS
Размер файла : 1024 Мбайт
Продолжительность : 17 м.
Режим общего битрейта : Переменный
Общий поток : 7963 Кбит/сек
Видео
Идентификатор : 224 (0xE0)
Формат : MPEG Video
Версия формата : Version 2
Профиль формата : Main@Main
Параметр BVOP формата : Да
Параметр матрицы формата : Выборочная
Параметр GOP формата : Variable
Продолжительность : 17 м.
Вид битрейта : Переменный
Битрейт : 7421 Кбит/сек
Ширина : 720 пикселей
Высота : 480 пикселей
Соотношение сторон : 4:3
Частота кадров : 29,970 кадров/сек
Стандарт вещания : NTSC
Цветовое пространство : YUV
Субдискретизация насыщенности : 4:2:0
Битовая глубина : 8 бит
Тип развёртки : Чересстрочная
Порядок развёртки : Верхнее поле первое
Метод сжатия : С потерями
Бит/(Пиксели*Кадры) : 0.716
Временной код первого кадра : 01:00:24:25
Оригинал временного кода : Group of pictures header
Размер потока : 954 Мбайт (93%)
Аудио #1
Идентификатор : 189 (0xBD)-128 (0x80)
Формат : AC-3
Формат/Информация : Audio Coding 3
Расширение режима : CM (complete main)
Параметр Endianness формата : Big
Режим смешивания : DVD-Video
Продолжительность : 17 м.
Вид битрейта : Постоянный
Битрейт : 192 Кбит/сек
Каналы : 2 канала
Расположение каналов : Front: L R
Частота : 48,0 КГц
Битовая глубина : 16 бит
Метод сжатия : С потерями
Задержка видео : -231 мс.
Размер потока : 24,7 Мбайт (2%)
Аудио #2
Идентификатор : 189 (0xBD)-129 (0x81)
Формат : AC-3
Формат/Информация : Audio Coding 3
Расширение режима : CM (complete main)
Параметр Endianness формата : Big
Режим смешивания : DVD-Video
Продолжительность : 11 с.
Вид битрейта : Постоянный
Битрейт : 192 Кбит/сек
Каналы : 2 канала
Расположение каналов : Front: L R
Частота : 48,0 КГц
Битовая глубина : 16 бит
Метод сжатия : С потерями
Размер потока : 266 Кбайт (0%)
Меню
Скриншоты меню
Скриншоты
Download
Чтобы скачать .torrent файл необходима регистрация
Сайт не распространяет и не хранит электронные версии произведений, а лишь предоставляет доступ к создаваемому пользователями каталогу ссылок на торрент-файлы, которые содержат только списки хеш-сумм
[Профиль]  [ЛС] 

@кедр@

Moderator gray

Стаж: 8 лет 11 месяцев

Сообщений: 3157

@кедр@ · 01-Янв-17 23:32 (спустя 3 дня)

[Цитировать] 

Цитата:
Скрин завершения проекта
перезалейте, пожалуйста в виде превью.
В допах что-то важное?
[Профиль]  [ЛС] 

bot · 10-Янв-17 22:36 (спустя 8 дней)

Тема была перенесена из форума DVD Video в форум Тестовый форум
@кедр@
 

Lucian666

Стаж: 9 лет 5 месяцев

Сообщений: 2950

Lucian666 · 10-Янв-17 22:44 (спустя 8 дней, ред. 11-Янв-17 17:05)

[Цитировать] 

Перезалил...Допы ни чего не весят там картинки
[Профиль]  [ЛС] 

@кедр@

Moderator gray

Стаж: 8 лет 11 месяцев

Сообщений: 3157

@кедр@ · 11-Янв-17 22:15 (спустя 23 часа, ред. 11-Янв-17 22:15)

[Цитировать] 


T временная

Не до DVD9
[Профиль]  [ЛС] 

Lucian666

Стаж: 9 лет 5 месяцев

Сообщений: 2950

Lucian666 · 11-Янв-17 22:40 (спустя 25 мин., ред. 12-Фев-17 16:20)

[Цитировать] 

Цитата:
T временная
Не до DVD9
а мне что от сюда следовало удалить не скажете?
[Профиль]  [ЛС] 

cr24

Стаж: 7 лет 3 месяца

Сообщений: 251

cr24 · 29-Янв-17 05:15 (спустя 17 дней)

[Цитировать] 

Lucian666 писал(а):
72214988
Цитата:
T временная
Не до DVD9
а мне что от сюда следовало удалить не скажете?
Спасибо что ничего не удалили (весёлые картинки)
[Профиль]  [ЛС] 
 
Ответить
Loading...
Error