Адрес РуТрекера для пользователей РФ - MainTracker.org

Расскажи друзьям:  

1812: Уланская баллада (Олег Фесенко) [2012, Россия, приключения, DVD9] R5 Original Rus

Страницы:  1

Ответить
Автор
Сообщение

vlaa8

RG Torrents.Ru

Стаж: 8 лет

Сообщений: 1579

vlaa8 · 05-Май-16 16:41 (1 год назад, ред. 05-Май-16 16:44)

[Цитировать] 


1812: Уланская баллада
«За любовь! За дружбу! За корону Российской империи!»
Страна: Россия
Студия: Централ Партнершип, Фонд кино
Жанр: приключения
Год выпуска: 2012
Мировая премьера: 1 ноября 2012
Российская премьера: 1 ноября 2012, «Централ Партнершип»
Дата выхода DVD: 20 декабря 2012, «CP Дистрибуция»
Дата выхода Blu-Ray: 20 декабря 2012, «CP Дистрибуция»
Продолжительность: 01:35:47
Перевод: Оригинал [Лицензия]
Субтитры: украинские
Оригинальная аудиодорожка: русский
Режиссер: Олег Фесенко
В ролях: Сергей Безруков, Антон Соколов, Анна Чиповская, Анатолий Белый, Станислав Дужников, Валерий Николаев, Алексей Макаров, Борис Клюев, Эрик Фратичелли, Гедиминас Адомайтис...
Описание: 1812 год. Накануне решающей битвы при Бородино тайный агент Наполеона похищает план сражения. Об этом становится известно Кутузову, и он посылает на перехват своих лучших улан. Путь их лежит в Польшу, где разворачивается бурный роман Наполеона с графиней Валевской…
Бонусы: нет

Качество: DVD9 R5
Формат: DVD-Video
Видео кодек: MPEG2
Аудио кодек: AC3
Видео: PAL 16:9 (720x576(0.697)) MPEG Video, 25,000 кадр/сек, 7226 Кбит/сек
Аудио: Russian (Dolby AC3, 6 ch) 448 Кбит/сек, 48,0 КГц


DVDInfo
Title: 1812.Ulanskaja.ballada.2012.DVD9
Size: 5.30 Gb ( 5 562 680,00 KBytes ) - DVD-9
Enabled regions: 1, 2, 3, 4, 5, 6, 7, 8
VTS_01 :
Play Length: 00:00:19
Video: PAL 4:3 (720x576) VBR
Audio:
Not specified (Dolby AC3, 2 ch)
VTS_02 :
Play Length: 00:00:15
Video: PAL 16:9 (720x576) VBR, Auto Letterboxed
Audio:
Not specified (Dolby AC3, 2 ch)
Not specified (Dolby AC3, 2 ch)
Subtitles:
English
VTS_03 :
Play Length: 01:35:47
Video: PAL 16:9 (720x576) VBR, Auto Letterboxed
Audio:
Russian (Dolby AC3, 6 ch)
Subtitles:
Ukrainian
VTS_04 :
Play Length: 00:01:59
Video: PAL 16:9 (720x576) VBR, Auto Letterboxed
Audio:
Not specified (Dolby AC3, 2 ch)
Not specified (Dolby AC3, 2 ch)
Subtitles:
English
* Menus Information *
VIDEO_TS Menu
Video:
NTSC 4:3 (720x480) VBR
Auto Pan&Scan, Auto Letterboxed
English Language Unit :
Title Menu
VTS_01 Menu
Video:
PAL 16:9 (720x576) VBR
Auto Letterboxed
Audio:
Not specified (Dolby AC3, 2 ch)
English Language Unit :
Root Menu
VTS_02 Menu
Video:
PAL 4:3 (720x576) VBR
English Language Unit :
Root Menu
VTS_03 Menu
Video:
PAL 4:3 (720x576) VBR
English Language Unit :
Root Menu
VTS_04 Menu
Video:
PAL 4:3 (720x576) VBR
English Language Unit :
Root Menu
MediaInfo
Общее
Полное имя : D:\Новинки 2016\1812.Ulanskaja.ballada.2012.DVD9\VIDEO_TS\VTS_03_2.VOB
Формат : MPEG-PS
Размер файла : 1024 Мбайт
Продолжительность : 18 м.
Режим общего битрейта : Переменный
Общий поток : 7830 Кбит/сек
Видео
Идентификатор : 224 (0xE0)
Формат : MPEG Video
Версия формата : Version 2
Профиль формата : Main@Main
Параметр BVOP формата : Да
Параметр матрицы формата : Выборочная
Параметр GOP формата : M=3, N=15
Структура изображения : Frame
Продолжительность : 18 м.
Вид битрейта : Переменный
Битрейт : 7226 Кбит/сек
Максимальный битрейт : 8000 Кбит/сек
Ширина : 720 пикселей
Высота : 576 пикселей
Соотношение сторон : 16:9
Частота кадров : 25,000 кадров/сек
Стандарт вещания : PAL
Цветовое пространство : YUV
Субдискретизация насыщенности : 4:2:0
Битовая глубина : 8 бит
Тип развёртки : Чересстрочная
Порядок развёртки : Верхнее поле первое
Метод сжатия : С потерями
Бит/(Пиксели*Кадры) : 0.697
Временной код первого кадра : 00:19:29:00
Оригинал временного кода : Group of pictures header
GOP, открыто/закрыто : Открыто
Размер потока : 945 Мбайт (92%)
Аудио
Идентификатор : 189 (0xBD)-128 (0x80)
Формат : AC-3
Формат/Информация : Audio Coding 3
Расширение режима : CM (complete main)
Параметр Endianness формата : Big
Режим смешивания : DVD-Video
Продолжительность : 18 м.
Вид битрейта : Постоянный
Битрейт : 448 Кбит/сек
Каналы : 6 каналов
Расположение каналов : Front: L C R, Side: L R, LFE
Частота : 48,0 КГц
Частота кадров : 31,250 кадров/сек (1536 spf)
Метод сжатия : С потерями
Задержка видео : -856 мс.
Размер потока : 58,6 Мбайт (6%)
Текст
Идентификатор : 189 (0xBD)-32 (0x20)
Формат : RLE
Формат/Информация : Run-length encoding
Режим смешивания : DVD-Video
Продолжительность : 18 м.
Задержка видео : 240 мс.
Скриншоты меню
Скриншоты фильма



Раздача от группы:
Download
Чтобы скачать .torrent файл необходима регистрация
Сайт не распространяет и не хранит электронные версии произведений, а лишь предоставляет доступ к создаваемому пользователями каталогу ссылок на торрент-файлы, которые содержат только списки хеш-сумм
[Профиль]  [ЛС] 

лунатик2012

Top Bonus 02* 500GB

Стаж: 6 лет

Сообщений: 54

лунатик2012 · 06-Май-16 21:32 (спустя 1 день 4 часа)

[Цитировать] 

Вспоминаю жуткое разочарование после просмотра.
[Профиль]  [ЛС] 

Петр Самый

Стаж: 1 год 1 месяц

Сообщений: 23


Петр Самый · 19-Июн-16 13:31 (спустя 1 месяц 12 дней, ред. 19-Июн-16 13:31)

[Цитировать] 

За неимением ничего посмотреть можно. Но сценарист 100 пудов - русофоб. Синие,безмозглые, но при этом со стихами гусары. Еще бы балалайку и медведя втулили.
[Профиль]  [ЛС] 

l00ps

Стаж: 7 лет 4 месяца

Сообщений: 40


l00ps · 22-Июл-16 05:31 (спустя 1 месяц 2 дня)

[Цитировать] 

Петр Самый писал(а):
70915660За неимением ничего посмотреть можно. Но сценарист 100 пудов - русофоб. Синие,безмозглые, но при этом со стихами гусары. Еще бы балалайку и медведя втулили.
спасибо "балалайку и медведя" поднял настоение
[Профиль]  [ЛС] 

texnic78

Стаж: 6 лет 11 месяцев

Сообщений: 2


texnic78 · 26-Окт-16 00:43 (спустя 3 месяца 3 дня)

[Цитировать] 

Не тратьте время. Заказная попса в худшем смысле этого слова. Нечего смотреть — почитайте поэмы Пушкина.
Бесталанная калька с «Д'Артаньяна и трёх мушкетёров». Анимированный комикс.
Император почему-то разговаривает, как Путин в «Куклах». Безруков в роли приглашённой звезды торгует лицом и произносит пошлости. Аракчеев-Клюев несколько раз оживляет кадр, на этом его роль заканчивается. Ледоховский-Делонг хорош, но куда ему до «наших»! Когда его убили, я выключил, смотреть дальше было невыносимо.
[Профиль]  [ЛС] 

PROxi

Стаж: 10 лет 10 месяцев

Сообщений: 616


PROxi · 11-Янв-17 13:49 (спустя 2 месяца 16 дней)

[Цитировать] 

Комедия под пивко. С "полётами" как в матрице и пр.)))
[Профиль]  [ЛС] 

Mr.GREGFAN

Стаж: 8 лет 3 месяца

Сообщений: 991

Mr.GREGFAN · 30-Янв-17 03:20 (спустя 18 дней, ред. 30-Янв-17 03:20)

[Цитировать] 

[Профиль]  [ЛС] 

PROxi

Стаж: 10 лет 10 месяцев

Сообщений: 616


PROxi · 31-Янв-17 08:54 (спустя 1 день 5 часов)

[Цитировать] 

Mr.GREGFAN писал(а):
72374199
Во-во это он в точку)
[Профиль]  [ЛС] 
 
Ответить
Loading...
Error