Крестный отец Тонг: Знаменитый бандит / The Tongfather: Notorious Bandit (Тьен Пэн / Tien Peng) [1974, Тайвань, Боевые искусства, DVD5(Custom)] VO (Chesterfield) + Eng

Страницы:  1

Ответить
Автор
Сообщение

loxaba

Стаж: 7 лет 9 месяцев

Сообщений: 211

26-Дек-16 00:18 (3 месяца 1 день назад, ред. 29-Янв-17 20:09)

[Цитировать] 

Крестный отец Тонг: Знаменитый бандит / The Tongfather: Notorious Bandit
Страна: Тайвань
Жанр: Боевые искусства
Год выпуска: 1974
Продолжительность: 01:28:22
Перевод: (одноголосый закадровый) Chesterfield
Cубтитры: нет
Оригинальная аудиодорожка: нет
Режиссер: Тьен Пэн / Tien Peng
В ролях: Тьен Пэн, Чен Хунг-Лье, Тин Хок, И Юэнь, Пун Чеунг-Мин, Вонг Винг-Сан, Шут Чунг-Тин, Сит Хон, Лю Чик, Шань Мао, Хун Хой, Цай Хунг
Описание: История об агентах под прикрытием в тылу китайско-японской опиумной банды под управлением безжалостного главаря известного как крёстный отец Тонг...(Chesterfield)
Релиз - Клуб фанатов азиатского кино «Таверна»
За появление релиза спасибо - Денис_КА, kolobok, loxaba, анемподист, id1500, Maks, -Holo-, Boll, Chesterfiel
Меню: статичное
Сэмпл: http://multi-up.com/1132657
Тип релиза: DVD5(Custom)
Контейнер: DVD-Video
Видео: MPEG 2, NTSC 4:3, 720x480, 29,970 кадров/сек, 8000 Кбит/сек,
Аудио: Russian, AC-3, 2 канала, 48,0 КГц, 192 Кбит/сек
Аудио 2: English, AC-3, 2 канала, 48,0 КГц, 192 Кбит/сек
DVDInfo
Title: Крестный отец Тонг
Size: 2.88 Gb ( 3 017 338,00 KBytes ) - DVD-5
Enabled regions: 1, 2, 3, 4, 5, 6, 8
VTS_01 :
Play Length: 00:00:01
Video: NTSC 4:3 (720x480) VBR
VTS_02 :
Play Length: 00:00:05
Video: NTSC 16:9 (720x480) VBR, Auto Letterboxed
VTS_03 :
Play Length: 00:00:06
Video: NTSC 16:9 (720x480) VBR, Auto Letterboxed
VTS_04 :
Play Length: 01:28:22
Video: NTSC 16:9 (720x480) VBR, Auto Letterboxed
Audio:
Russian (Dolby AC3, 2 ch)
English (Dolby AC3, 2 ch)
MediaInfo
Общее
Полное имя : G:\Дмитрия (Chesterfield)\Крёстный отец Тонг\Крестный отец Тонг\VIDEO_TS\VIDEO_TS.BUP
Формат : DVD Video
Профиль формата : Menu
Размер файла : 12,0 Кбайт
Режим общего битрейта : Переменный
Видео
Идентификатор : 224 (0xE0)
Формат : MPEG Video
Версия формата : Version 1
Вид битрейта : Переменный
Ширина : 720 пикселей
Высота : 480 пикселей
Соотношение сторон : 4:3
Частота кадров : 29,970 (29970/1000) кадров/сек
Стандарт вещания : NTSC
Метод сжатия : С потерями
Общее
Полное имя : G:\Дмитрия (Chesterfield)\Крёстный отец Тонг\Крестный отец Тонг\VIDEO_TS\VIDEO_TS.IFO
Формат : DVD Video
Профиль формата : Menu
Размер файла : 12,0 Кбайт
Режим общего битрейта : Переменный
Видео
Идентификатор : 224 (0xE0)
Формат : MPEG Video
Версия формата : Version 1
Вид битрейта : Переменный
Ширина : 720 пикселей
Высота : 480 пикселей
Соотношение сторон : 4:3
Частота кадров : 29,970 (29970/1000) кадров/сек
Стандарт вещания : NTSC
Метод сжатия : С потерями
Общее
Полное имя : G:\Дмитрия (Chesterfield)\Крёстный отец Тонг\Крестный отец Тонг\VIDEO_TS\VTS_01_0.BUP
Формат : DVD Video
Профиль формата : Program
Размер файла : 20,0 Кбайт
Продолжительность : 1 с. 0 мс.
Режим общего битрейта : Переменный
Общий поток : 164 Кбит/сек
Видео
Идентификатор : 224 (0xE0)
Формат : MPEG Video
Версия формата : Version 2
Продолжительность : 1 с. 1 мс.
Вид битрейта : Переменный
Ширина : 720 пикселей
Высота : 480 пикселей
Соотношение сторон : 4:3
Частота кадров : 29,970 (29970/1000) кадров/сек
Стандарт вещания : NTSC
Метод сжатия : С потерями
Аудио
Формат : AC-3
Формат/Информация : Audio Coding 3
Продолжительность : 1 с. 0 мс.
Каналы : 2 канала
Частота : 48,0 КГц
Метод сжатия : С потерями
Язык : English
Меню
Продолжительность : 1 с. 0 мс.
00:00:00.000 : Chapter 1
00:00:00.500 : Chapter 2
Общее
Полное имя : G:\Дмитрия (Chesterfield)\Крёстный отец Тонг\Крестный отец Тонг\VIDEO_TS\VTS_01_0.IFO
Формат : DVD Video
Профиль формата : Program
Размер файла : 20,0 Кбайт
Продолжительность : 1 с. 0 мс.
Режим общего битрейта : Переменный
Общий поток : 164 Кбит/сек
Видео
Идентификатор : 224 (0xE0)
Формат : MPEG Video
Версия формата : Version 2
Продолжительность : 1 с. 1 мс.
Вид битрейта : Переменный
Ширина : 720 пикселей
Высота : 480 пикселей
Соотношение сторон : 4:3
Частота кадров : 29,970 (29970/1000) кадров/сек
Стандарт вещания : NTSC
Метод сжатия : С потерями
Аудио
Формат : AC-3
Формат/Информация : Audio Coding 3
Продолжительность : 1 с. 0 мс.
Каналы : 2 канала
Частота : 48,0 КГц
Метод сжатия : С потерями
Язык : English
Меню
Продолжительность : 1 с. 0 мс.
00:00:00.000 : Chapter 1
00:00:00.500 : Chapter 2
Общее
Полное имя : G:\Дмитрия (Chesterfield)\Крёстный отец Тонг\Крестный отец Тонг\VIDEO_TS\VTS_01_0.VOB
Формат : MPEG-PS
Размер файла : 10,5 Мбайт
Продолжительность : 9 с. 504 мс.
Режим общего битрейта : Переменный
Общий поток : 9264 Кбит/сек
Видео
Идентификатор : 224 (0xE0)
Формат : MPEG Video
Версия формата : Version 2
Профиль формата : Main@Main
Параметр BVOP формата : Да
Параметр матрицы формата : Выборочная
Параметр GOP формата : Variable
Продолжительность : 9 с. 476 мс.
Вид битрейта : Переменный
Битрейт : 8888 Кбит/сек
Ширина : 720 пикселей
Высота : 480 пикселей
Соотношение сторон : 4:3
Частота кадров : 29,970 (30000/1001) кадров/сек
Стандарт вещания : NTSC
Цветовое пространство : YUV
Субдискретизация насыщенности : 4:2:0
Битовая глубина : 8 бит
Метод сжатия : С потерями
Бит/(Пиксели*Кадры) : 0.858
Размер потока : 10,0 Мбайт (96%)
Основные цвета : BT.601 NTSC
Характеристики трансфера : BT.601
Коэффициенты матрицы : BT.601
Аудио
Идентификатор : 189 (0xBD)-128 (0x80)
Формат : AC-3
Формат/Информация : Audio Coding 3
Расширение режима : CM (complete main)
Параметр Endianness формата : Big
Режим смешивания : DVD-Video
Продолжительность : 9 с. 504 мс.
Вид битрейта : Постоянный
Битрейт : 192 Кбит/сек
Каналы : 2 канала
Расположение каналов : Front: L R
Частота : 48,0 КГц
Частота кадров : 31,250 кадров/сек (1536 spf)
Метод сжатия : С потерями
Размер потока : 223 Кбайт (2%)
Текст #1
Идентификатор : 189 (0xBD)-32 (0x20)
Формат : RLE
Формат/Информация : Run-length encoding
Режим смешивания : DVD-Video
Текст #2
Идентификатор : 189 (0xBD)-33 (0x21)
Формат : RLE
Формат/Информация : Run-length encoding
Режим смешивания : DVD-Video
Меню
Общее
Полное имя : G:\Дмитрия (Chesterfield)\Крёстный отец Тонг\Крестный отец Тонг\VIDEO_TS\VTS_01_1.VOB
Формат : MPEG-PS
Размер файла : 8,00 Кбайт
Продолжительность : 33 мс.
Общий поток : 1986 Кбит/сек
Видео
Идентификатор : 224 (0xE0)
Формат : MPEG Video
Версия формата : Version 2
Профиль формата : Main@Main
Параметр BVOP формата : Нет
Параметр матрицы формата : Выборочная
Продолжительность : 33 мс.
Максимальный битрейт : 8000 Кбит/сек
Ширина : 720 пикселей
Высота : 480 пикселей
Соотношение сторон : 4:3
Частота кадров : 29,970 (30000/1001) кадров/сек
Стандарт вещания : NTSC
Цветовое пространство : YUV
Субдискретизация насыщенности : 4:2:0
Битовая глубина : 8 бит
Тип развёртки : Прогрессивная
Порядок развёртки : Верхнее поле первое
Метод сжатия : С потерями
Временной код первого кадра : 00:00:00:00
Оригинал временного кода : Group of pictures header
Меню
Общее
Полное имя : G:\Дмитрия (Chesterfield)\Крёстный отец Тонг\Крестный отец Тонг\VIDEO_TS\VTS_02_0.BUP
Формат : DVD Video
Профиль формата : Program
Размер файла : 18,0 Кбайт
Продолжительность : 5 с. 500 мс.
Режим общего битрейта : Переменный
Общий поток : 26,8 Кбит/сек
Видео
Идентификатор : 224 (0xE0)
Формат : MPEG Video
Версия формата : Version 2
Продолжительность : 5 с. 506 мс.
Вид битрейта : Переменный
Ширина : 720 пикселей
Высота : 480 пикселей
Соотношение сторон : 16:9
Частота кадров : 29,970 (29970/1000) кадров/сек
Стандарт вещания : NTSC
Метод сжатия : С потерями
Аудио
Формат : AC-3
Формат/Информация : Audio Coding 3
Продолжительность : 5 с. 500 мс.
Каналы : 2 канала
Частота : 48,0 КГц
Метод сжатия : С потерями
Язык : English
Меню
Продолжительность : 5 с. 500 мс.
00:00:00.000 : Chapter 1
00:00:00.500 : Chapter 2
00:00:01.000 : Chapter 3
00:00:01.500 : Chapter 4
00:00:02.000 : Chapter 5
00:00:02.500 : Chapter 6
00:00:03.000 : Chapter 7
00:00:03.500 : Chapter 8
00:00:04.000 : Chapter 9
00:00:04.500 : Chapter 10
00:00:05.000 : Chapter 11
Общее
Полное имя : G:\Дмитрия (Chesterfield)\Крёстный отец Тонг\Крестный отец Тонг\VIDEO_TS\VTS_02_0.IFO
Формат : DVD Video
Профиль формата : Program
Размер файла : 18,0 Кбайт
Продолжительность : 5 с. 500 мс.
Режим общего битрейта : Переменный
Общий поток : 26,8 Кбит/сек
Видео
Идентификатор : 224 (0xE0)
Формат : MPEG Video
Версия формата : Version 2
Продолжительность : 5 с. 506 мс.
Вид битрейта : Переменный
Ширина : 720 пикселей
Высота : 480 пикселей
Соотношение сторон : 16:9
Частота кадров : 29,970 (29970/1000) кадров/сек
Стандарт вещания : NTSC
Метод сжатия : С потерями
Аудио
Формат : AC-3
Формат/Информация : Audio Coding 3
Продолжительность : 5 с. 500 мс.
Каналы : 2 канала
Частота : 48,0 КГц
Метод сжатия : С потерями
Язык : English
Меню
Продолжительность : 5 с. 500 мс.
00:00:00.000 : Chapter 1
00:00:00.500 : Chapter 2
00:00:01.000 : Chapter 3
00:00:01.500 : Chapter 4
00:00:02.000 : Chapter 5
00:00:02.500 : Chapter 6
00:00:03.000 : Chapter 7
00:00:03.500 : Chapter 8
00:00:04.000 : Chapter 9
00:00:04.500 : Chapter 10
00:00:05.000 : Chapter 11
Общее
Полное имя : G:\Дмитрия (Chesterfield)\Крёстный отец Тонг\Крестный отец Тонг\VIDEO_TS\VTS_02_0.VOB
Формат : MPEG-PS
Размер файла : 112 Кбайт
Продолжительность : 467 мс.
Общий поток : 1965 Кбит/сек
Видео
Идентификатор : 224 (0xE0)
Формат : MPEG Video
Версия формата : Version 2
Профиль формата : Main@Main
Параметр BVOP формата : Да
Параметр матрицы формата : Выборочная
Структура изображения : Frame
Продолжительность : 467 мс.
Максимальный битрейт : 2000 Кбит/сек
Ширина : 720 пикселей
Высота : 480 пикселей
Соотношение сторон : 4:3
Частота кадров : 29,970 (30000/1001) кадров/сек
Стандарт вещания : NTSC
Цветовое пространство : YUV
Субдискретизация насыщенности : 4:2:0
Битовая глубина : 8 бит
Тип развёртки : Чересстрочная
Порядок развёртки : Верхнее поле первое
Метод сжатия : С потерями
Временной код первого кадра : 00:00:00:01
Оригинал временного кода : Group of pictures header
Меню
Общее
Полное имя : G:\Дмитрия (Chesterfield)\Крёстный отец Тонг\Крестный отец Тонг\VIDEO_TS\VTS_02_1.VOB
Формат : MPEG-PS
Размер файла : 8,00 Кбайт
Продолжительность : 33 мс.
Общий поток : 1986 Кбит/сек
Видео
Идентификатор : 224 (0xE0)
Формат : MPEG Video
Версия формата : Version 2
Профиль формата : Main@Main
Параметр BVOP формата : Нет
Параметр матрицы формата : Выборочная
Продолжительность : 33 мс.
Максимальный битрейт : 8000 Кбит/сек
Ширина : 720 пикселей
Высота : 480 пикселей
Соотношение сторон : 16:9
Частота кадров : 29,970 (30000/1001) кадров/сек
Стандарт вещания : NTSC
Цветовое пространство : YUV
Субдискретизация насыщенности : 4:2:0
Битовая глубина : 8 бит
Тип развёртки : Прогрессивная
Порядок развёртки : Верхнее поле первое
Метод сжатия : С потерями
Временной код первого кадра : 00:00:00:00
Оригинал временного кода : Group of pictures header
Меню
Общее
Полное имя : G:\Дмитрия (Chesterfield)\Крёстный отец Тонг\Крестный отец Тонг\VIDEO_TS\VTS_03_0.BUP
Формат : DVD Video
Профиль формата : Program
Размер файла : 18,0 Кбайт
Продолжительность : 6 с. 500 мс.
Режим общего битрейта : Переменный
Общий поток : 22,7 Кбит/сек
Видео
Идентификатор : 224 (0xE0)
Формат : MPEG Video
Версия формата : Version 2
Продолжительность : 6 с. 507 мс.
Вид битрейта : Переменный
Ширина : 720 пикселей
Высота : 480 пикселей
Соотношение сторон : 16:9
Частота кадров : 29,970 (29970/1000) кадров/сек
Стандарт вещания : NTSC
Метод сжатия : С потерями
Аудио
Формат : AC-3
Формат/Информация : Audio Coding 3
Продолжительность : 6 с. 500 мс.
Каналы : 2 канала
Частота : 48,0 КГц
Метод сжатия : С потерями
Язык : English
Меню
Продолжительность : 6 с. 500 мс.
00:00:00.000 : Chapter 1
00:00:00.500 : Chapter 2
00:00:01.000 : Chapter 3
00:00:01.500 : Chapter 4
00:00:02.000 : Chapter 5
00:00:02.500 : Chapter 6
00:00:03.000 : Chapter 7
00:00:03.500 : Chapter 8
00:00:04.000 : Chapter 9
00:00:04.500 : Chapter 10
00:00:05.000 : Chapter 11
00:00:05.500 : Chapter 12
00:00:06.000 : Chapter 13
Общее
Полное имя : G:\Дмитрия (Chesterfield)\Крёстный отец Тонг\Крестный отец Тонг\VIDEO_TS\VTS_03_0.IFO
Формат : DVD Video
Профиль формата : Program
Размер файла : 18,0 Кбайт
Продолжительность : 6 с. 500 мс.
Режим общего битрейта : Переменный
Общий поток : 22,7 Кбит/сек
Видео
Идентификатор : 224 (0xE0)
Формат : MPEG Video
Версия формата : Version 2
Продолжительность : 6 с. 507 мс.
Вид битрейта : Переменный
Ширина : 720 пикселей
Высота : 480 пикселей
Соотношение сторон : 16:9
Частота кадров : 29,970 (29970/1000) кадров/сек
Стандарт вещания : NTSC
Метод сжатия : С потерями
Аудио
Формат : AC-3
Формат/Информация : Audio Coding 3
Продолжительность : 6 с. 500 мс.
Каналы : 2 канала
Частота : 48,0 КГц
Метод сжатия : С потерями
Язык : English
Меню
Продолжительность : 6 с. 500 мс.
00:00:00.000 : Chapter 1
00:00:00.500 : Chapter 2
00:00:01.000 : Chapter 3
00:00:01.500 : Chapter 4
00:00:02.000 : Chapter 5
00:00:02.500 : Chapter 6
00:00:03.000 : Chapter 7
00:00:03.500 : Chapter 8
00:00:04.000 : Chapter 9
00:00:04.500 : Chapter 10
00:00:05.000 : Chapter 11
00:00:05.500 : Chapter 12
00:00:06.000 : Chapter 13
Общее
Полное имя : G:\Дмитрия (Chesterfield)\Крёстный отец Тонг\Крестный отец Тонг\VIDEO_TS\VTS_03_0.VOB
Формат : MPEG-PS
Размер файла : 112 Кбайт
Продолжительность : 467 мс.
Общий поток : 1965 Кбит/сек
Видео
Идентификатор : 224 (0xE0)
Формат : MPEG Video
Версия формата : Version 2
Профиль формата : Main@Main
Параметр BVOP формата : Да
Параметр матрицы формата : Выборочная
Структура изображения : Frame
Продолжительность : 467 мс.
Максимальный битрейт : 2000 Кбит/сек
Ширина : 720 пикселей
Высота : 480 пикселей
Соотношение сторон : 4:3
Частота кадров : 29,970 (30000/1001) кадров/сек
Стандарт вещания : NTSC
Цветовое пространство : YUV
Субдискретизация насыщенности : 4:2:0
Битовая глубина : 8 бит
Тип развёртки : Чересстрочная
Порядок развёртки : Верхнее поле первое
Метод сжатия : С потерями
Временной код первого кадра : 00:00:00:01
Оригинал временного кода : Group of pictures header
Меню
Общее
Полное имя : G:\Дмитрия (Chesterfield)\Крёстный отец Тонг\Крестный отец Тонг\VIDEO_TS\VTS_03_1.VOB
Формат : MPEG-PS
Размер файла : 8,00 Кбайт
Продолжительность : 33 мс.
Общий поток : 1986 Кбит/сек
Видео
Идентификатор : 224 (0xE0)
Формат : MPEG Video
Версия формата : Version 2
Профиль формата : Main@Main
Параметр BVOP формата : Нет
Параметр матрицы формата : Выборочная
Продолжительность : 33 мс.
Максимальный битрейт : 8000 Кбит/сек
Ширина : 720 пикселей
Высота : 480 пикселей
Соотношение сторон : 16:9
Частота кадров : 29,970 (30000/1001) кадров/сек
Стандарт вещания : NTSC
Цветовое пространство : YUV
Субдискретизация насыщенности : 4:2:0
Битовая глубина : 8 бит
Тип развёртки : Прогрессивная
Порядок развёртки : Верхнее поле первое
Метод сжатия : С потерями
Временной код первого кадра : 00:00:00:00
Оригинал временного кода : Group of pictures header
Меню
Общее
Полное имя : G:\Дмитрия (Chesterfield)\Крёстный отец Тонг\Крестный отец Тонг\VIDEO_TS\VTS_04_0.BUP
Формат : DVD Video
Профиль формата : Program
Размер файла : 62,0 Кбайт
Продолжительность : 1 ч. 28 м.
Режим общего битрейта : Переменный
Общий поток : 96 бит/сек
Видео
Идентификатор : 224 (0xE0)
Формат : MPEG Video
Версия формата : Version 2
Продолжительность : 1 ч. 28 м.
Вид битрейта : Переменный
Ширина : 720 пикселей
Высота : 480 пикселей
Соотношение сторон : 16:9
Частота кадров : 29,970 (29970/1000) кадров/сек
Стандарт вещания : NTSC
Метод сжатия : С потерями
Аудио #1
Идентификатор : 128 (0x80)
Формат : AC-3
Формат/Информация : Audio Coding 3
Продолжительность : 1 ч. 28 м.
Каналы : 2 канала
Частота : 48,0 КГц
Метод сжатия : С потерями
Язык : Russian
Аудио #2
Идентификатор : 129 (0x81)
Формат : AC-3
Формат/Информация : Audio Coding 3
Продолжительность : 1 ч. 28 м.
Каналы : 2 канала
Частота : 48,0 КГц
Метод сжатия : С потерями
Язык : English
Меню
Продолжительность : 1 ч. 28 м.
00:00:00.000 : Chapter 1
00:08:12.666 : Chapter 2
00:14:54.832 : Chapter 3
00:19:54.365 : Chapter 4
00:26:05.965 : Chapter 5
00:31:16.898 : Chapter 6
00:37:24.164 : Chapter 7
00:44:17.997 : Chapter 8
00:52:08.730 : Chapter 9
00:57:18.563 : Chapter 10
01:01:38.029 : Chapter 11
01:07:27.429 : Chapter 12
01:15:11.095 : Chapter 13
01:21:49.761 : Chapter 14
01:28:21.927 : Chapter 15
List (Audio) : 0 / 1
Общее
Полное имя : G:\Дмитрия (Chesterfield)\Крёстный отец Тонг\Крестный отец Тонг\VIDEO_TS\VTS_04_0.IFO
Формат : DVD Video
Профиль формата : Program
Размер файла : 62,0 Кбайт
Продолжительность : 1 ч. 28 м.
Режим общего битрейта : Переменный
Общий поток : 96 бит/сек
Видео
Идентификатор : 224 (0xE0)
Формат : MPEG Video
Версия формата : Version 2
Продолжительность : 1 ч. 28 м.
Вид битрейта : Переменный
Ширина : 720 пикселей
Высота : 480 пикселей
Соотношение сторон : 16:9
Частота кадров : 29,970 (29970/1000) кадров/сек
Стандарт вещания : NTSC
Метод сжатия : С потерями
Аудио #1
Идентификатор : 128 (0x80)
Формат : AC-3
Формат/Информация : Audio Coding 3
Продолжительность : 1 ч. 28 м.
Каналы : 2 канала
Частота : 48,0 КГц
Метод сжатия : С потерями
Язык : Russian
Аудио #2
Идентификатор : 129 (0x81)
Формат : AC-3
Формат/Информация : Audio Coding 3
Продолжительность : 1 ч. 28 м.
Каналы : 2 канала
Частота : 48,0 КГц
Метод сжатия : С потерями
Язык : English
Меню
Продолжительность : 1 ч. 28 м.
00:00:00.000 : Chapter 1
00:08:12.666 : Chapter 2
00:14:54.832 : Chapter 3
00:19:54.365 : Chapter 4
00:26:05.965 : Chapter 5
00:31:16.898 : Chapter 6
00:37:24.164 : Chapter 7
00:44:17.997 : Chapter 8
00:52:08.730 : Chapter 9
00:57:18.563 : Chapter 10
01:01:38.029 : Chapter 11
01:07:27.429 : Chapter 12
01:15:11.095 : Chapter 13
01:21:49.761 : Chapter 14
01:28:21.927 : Chapter 15
List (Audio) : 0 / 1
Общее
Полное имя : G:\Дмитрия (Chesterfield)\Крёстный отец Тонг\Крестный отец Тонг\VIDEO_TS\VTS_04_0.VOB
Формат : MPEG-PS
Размер файла : 112 Кбайт
Продолжительность : 467 мс.
Общий поток : 1965 Кбит/сек
Видео
Идентификатор : 224 (0xE0)
Формат : MPEG Video
Версия формата : Version 2
Профиль формата : Main@Main
Параметр BVOP формата : Да
Параметр матрицы формата : Выборочная
Структура изображения : Frame
Продолжительность : 467 мс.
Максимальный битрейт : 2000 Кбит/сек
Ширина : 720 пикселей
Высота : 480 пикселей
Соотношение сторон : 4:3
Частота кадров : 29,970 (30000/1001) кадров/сек
Стандарт вещания : NTSC
Цветовое пространство : YUV
Субдискретизация насыщенности : 4:2:0
Битовая глубина : 8 бит
Тип развёртки : Чересстрочная
Порядок развёртки : Верхнее поле первое
Метод сжатия : С потерями
Временной код первого кадра : 00:00:00:01
Оригинал временного кода : Group of pictures header
Меню
Общее
Полное имя : G:\Дмитрия (Chesterfield)\Крёстный отец Тонг\Крестный отец Тонг\VIDEO_TS\VTS_04_1.VOB
Формат : MPEG-PS
Размер файла : 1024 Мбайт
Продолжительность : 31 м. 3 с.
Режим общего битрейта : Переменный
Общий поток : 4609 Кбит/сек
Видео
Идентификатор : 224 (0xE0)
Формат : MPEG Video
Версия формата : Version 2
Профиль формата : Main@Main
Параметр BVOP формата : Да
Параметр матрицы формата : По умолчанию
Параметр GOP формата : M=3, N=13
Продолжительность : 31 м. 3 с.
Вид битрейта : Переменный
Битрейт : 4069 Кбит/сек
Максимальный битрейт : 6100 Кбит/сек
Ширина : 720 пикселей
Высота : 480 пикселей
Соотношение сторон : 2,40:1
Частота кадров : 23,976 (24000/1001) кадра/сек
Стандарт вещания : NTSC
Цветовое пространство : YUV
Субдискретизация насыщенности : 4:2:0
Битовая глубина : 8 бит
Тип развёртки : Прогрессивная
Порядок развёртки : 2:3 Pulldown
Метод сжатия : С потерями
Бит/(Пиксели*Кадры) : 0.491
Временной код первого кадра : 00:59:58;00
Оригинал временного кода : Group of pictures header
GOP, открыто/закрыто : Открыто
Размер потока : 904 Мбайт (88%)
Основные цвета : BT.601 NTSC
Характеристики трансфера : BT.601
Коэффициенты матрицы : BT.601
Аудио #1
Идентификатор : 189 (0xBD)-128 (0x80)
Формат : AC-3
Формат/Информация : Audio Coding 3
Расширение режима : CM (complete main)
Параметр Endianness формата : Big
Режим смешивания : DVD-Video
Продолжительность : 31 м. 3 с.
Вид битрейта : Постоянный
Битрейт : 256 Кбит/сек
Каналы : 2 канала
Расположение каналов : Front: L R
Частота : 48,0 КГц
Частота кадров : 31,250 кадров/сек (1536 spf)
Метод сжатия : С потерями
Размер потока : 56,9 Мбайт (6%)
Аудио #2
Идентификатор : 189 (0xBD)-129 (0x81)
Формат : AC-3
Формат/Информация : Audio Coding 3
Расширение режима : CM (complete main)
Параметр Endianness формата : Big
Режим смешивания : DVD-Video
Продолжительность : 31 м. 3 с.
Вид битрейта : Постоянный
Битрейт : 192 Кбит/сек
Каналы : 2 канала
Расположение каналов : Front: L R
Частота : 48,0 КГц
Частота кадров : 31,250 кадров/сек (1536 spf)
Метод сжатия : С потерями
Размер потока : 42,7 Мбайт (4%)
Меню
Общее
Полное имя : G:\Дмитрия (Chesterfield)\Крёстный отец Тонг\Крестный отец Тонг\VIDEO_TS\VTS_04_2.VOB
Формат : MPEG-PS
Размер файла : 1024 Мбайт
Продолжительность : 30 м. 42 с.
Режим общего битрейта : Переменный
Общий поток : 4662 Кбит/сек
Видео
Идентификатор : 224 (0xE0)
Формат : MPEG Video
Версия формата : Version 2
Профиль формата : Main@Main
Параметр BVOP формата : Да
Параметр матрицы формата : По умолчанию
Параметр GOP формата : M=3, N=13
Продолжительность : 30 м. 42 с.
Вид битрейта : Переменный
Битрейт : 4122 Кбит/сек
Максимальный битрейт : 6100 Кбит/сек
Ширина : 720 пикселей
Высота : 480 пикселей
Соотношение сторон : 2,40:1
Частота кадров : 23,976 (24000/1001) кадра/сек
Стандарт вещания : NTSC
Цветовое пространство : YUV
Субдискретизация насыщенности : 4:2:0
Битовая глубина : 8 бит
Тип развёртки : Прогрессивная
Порядок развёртки : 2:3 Pulldown
Метод сжатия : С потерями
Бит/(Пиксели*Кадры) : 0.497
Временной код первого кадра : 01:31:02;03
Оригинал временного кода : Group of pictures header
GOP, открыто/закрыто : Открыто
Размер потока : 905 Мбайт (88%)
Основные цвета : BT.601 NTSC
Характеристики трансфера : BT.601
Коэффициенты матрицы : BT.601
Аудио #1
Идентификатор : 189 (0xBD)-128 (0x80)
Формат : AC-3
Формат/Информация : Audio Coding 3
Расширение режима : CM (complete main)
Параметр Endianness формата : Big
Режим смешивания : DVD-Video
Продолжительность : 30 м. 42 с.
Вид битрейта : Постоянный
Битрейт : 256 Кбит/сек
Каналы : 2 канала
Расположение каналов : Front: L R
Частота : 48,0 КГц
Частота кадров : 31,250 кадров/сек (1536 spf)
Метод сжатия : С потерями
Задержка видео : -624 мс.
Размер потока : 56,2 Мбайт (5%)
Аудио #2
Идентификатор : 189 (0xBD)-129 (0x81)
Формат : AC-3
Формат/Информация : Audio Coding 3
Расширение режима : CM (complete main)
Параметр Endianness формата : Big
Режим смешивания : DVD-Video
Продолжительность : 30 м. 42 с.
Вид битрейта : Постоянный
Битрейт : 192 Кбит/сек
Каналы : 2 канала
Расположение каналов : Front: L R
Частота : 48,0 КГц
Частота кадров : 31,250 кадров/сек (1536 spf)
Метод сжатия : С потерями
Задержка видео : -560 мс.
Размер потока : 42,2 Мбайт (4%)
Меню
Общее
Полное имя : G:\Дмитрия (Chesterfield)\Крёстный отец Тонг\Крестный отец Тонг\VIDEO_TS\VTS_04_3.VOB
Формат : MPEG-PS
Размер файла : 888 Мбайт
Продолжительность : 26 м. 42 с.
Режим общего битрейта : Переменный
Общий поток : 4647 Кбит/сек
Видео
Идентификатор : 224 (0xE0)
Формат : MPEG Video
Версия формата : Version 2
Профиль формата : Main@Main
Параметр BVOP формата : Да
Параметр матрицы формата : По умолчанию
Параметр GOP формата : M=3, N=13
Продолжительность : 26 м. 41 с.
Вид битрейта : Переменный
Битрейт : 4107 Кбит/сек
Максимальный битрейт : 6100 Кбит/сек
Ширина : 720 пикселей
Высота : 480 пикселей
Соотношение сторон : 2,40:1
Частота кадров : 23,976 (24000/1001) кадра/сек
Стандарт вещания : NTSC
Цветовое пространство : YUV
Субдискретизация насыщенности : 4:2:0
Битовая глубина : 8 бит
Тип развёртки : Прогрессивная
Порядок развёртки : 2:3 Pulldown
Метод сжатия : С потерями
Бит/(Пиксели*Кадры) : 0.496
Временной код первого кадра : 02:01:44;15
Оригинал временного кода : Group of pictures header
GOP, открыто/закрыто : Открыто
Размер потока : 784 Мбайт (88%)
Основные цвета : BT.601 NTSC
Характеристики трансфера : BT.601
Коэффициенты матрицы : BT.601
Аудио #1
Идентификатор : 189 (0xBD)-128 (0x80)
Формат : AC-3
Формат/Информация : Audio Coding 3
Расширение режима : CM (complete main)
Параметр Endianness формата : Big
Режим смешивания : DVD-Video
Продолжительность : 26 м. 42 с.
Вид битрейта : Постоянный
Битрейт : 256 Кбит/сек
Каналы : 2 канала
Расположение каналов : Front: L R
Частота : 48,0 КГц
Частота кадров : 31,250 кадров/сек (1536 spf)
Метод сжатия : С потерями
Задержка видео : -616 мс.
Размер потока : 48,9 Мбайт (6%)
Аудио #2
Идентификатор : 189 (0xBD)-129 (0x81)
Формат : AC-3
Формат/Информация : Audio Coding 3
Расширение режима : CM (complete main)
Параметр Endianness формата : Big
Режим смешивания : DVD-Video
Продолжительность : 26 м. 42 с.
Вид битрейта : Постоянный
Битрейт : 192 Кбит/сек
Каналы : 2 канала
Расположение каналов : Front: L R
Частота : 48,0 КГц
Частота кадров : 31,250 кадров/сек (1536 spf)
Метод сжатия : С потерями
Задержка видео : -616 мс.
Размер потока : 36,7 Мбайт (4%)
Скриншоты меню
Скриншоты
Download
Чтобы скачать .torrent файл необходима регистрация
Сайт не распространяет и не хранит электронные версии произведений, а лишь предоставляет доступ к создаваемому пользователями каталогу ссылок на торрент-файлы, которые содержат только списки хеш-сумм
[Профиль]  [ЛС] 

@кедр@

Moderator gray

Стаж: 8 лет 9 месяцев

Сообщений: 2990

Откуда: BD>DVD

01-Янв-17 23:25 (спустя 6 дней)

[Цитировать] 

loxaba
Раздачу оформите, пожалуйста, в соответствии с Custom релизом.
и это тоже поправьте
loxaba писал(а):
72105076Перевод: Авторский (одноголосый закадровый) Chesterfield
! Об обозначении одноголосых переводов
[Профиль]  [ЛС] 

@кедр@

Moderator gray

Стаж: 8 лет 9 месяцев

Сообщений: 2990

Откуда: BD>DVD

08-Янв-17 18:29 (спустя 6 дней, ред. 08-Янв-17 18:29)

[Цитировать] 

Заголовок исправить забыли
[Профиль]  [ЛС] 

@кедр@

Moderator gray

Стаж: 8 лет 9 месяцев

Сообщений: 2990

Откуда: BD>DVD

10-Янв-17 22:54 (спустя 2 дня 4 часа)

[Цитировать] 

Custom без инф. по сборке
+
Цитата:
Оригинальная аудиодорожка: нет

T временная

[Профиль]  [ЛС] 
 
Ответить
Loading...
Error