Адрес РуТрекера для пользователей РФ - MainTracker.org

Расскажи друзьям:  

(Musical/Soundtrack) Ла-Ла Ленд / La La Land (Justin Hurwitz, VA) - 2016, FLAC (tracks+.cue) lossless

Страницы:  1

Ответить
Автор
Сообщение

kasatkal

Moderator

Стаж: 8 лет 11 месяцев

Сообщений: 10467

kasatkal · 10-Янв-17 21:24 (5 месяцев 14 дней назад, ред. 23-Янв-17 21:50)

[Цитировать] 

Ла-Ла Ленд / La La Land
Жанр: Musical/Soundtrack
Год издания диска: 2016
Издатель (лейбл): Interscope Records
Номер по каталогу: 002562002
Аудиокодек: FLAC
Тип рипа: tracks+.cue
Битрейт аудио: lossless
Продолжительность: 00:45:54
Источник: скачано из сети
Наличие сканов в содержимом раздачи: да (только обложки)
Треклист:
01. La La Land Cast - Another Day of Sun (3:48)
02. Emma Stone, Callie Hernandez, Sonoya Mizuno, Jessica Rothe - Someone in the Crowd (4:20)
03. Justin Hurwitz - Mia & Sebastian's Theme (1:38)
04. Ryan Gosling, Emma Stone - A Lovely Night (3:57)
05. Justin Hurwitz - Herman's Habit (1:52)
06. Ryan Gosling - City of Stars (1:51)
07. Justin Hurwitz - Planetarium (4:17)
08. Justin Hurwitz - Summer Montage / Madeline (2:05)
09. Ryan Gosling, Emma Stone - City of Stars (2:30)
10. John Legend - Start a Fire (3:12)
11. Justin Hurwitz - Engagement Party (1:27)
12. Emma Stone - Audition (The Fools Who Dream) (3:48)
13. Justin Hurwitz - Epilogue (7:39)
14. Justin Hurwitz - The End (0:46)
15. Justin Hurwitz featuring Emma Stone - City of Stars (Humming) (2:43)

LOG EAC:
Exact Audio Copy V1.3 from 2. September 2016
EAC extraction logfile from 29. December 2016, 1:04
Justin Hurwitz / La La Land Original Motion Picture Soundtrack
Used drive : ATAPI iHAS124 B Adapter: 1 ID: 0
Read mode : Secure
Utilize accurate stream : Yes
Defeat audio cache : Yes
Make use of C2 pointers : No
Read offset correction : 6
Overread into Lead-In and Lead-Out : No
Fill up missing offset samples with silence : Yes
Delete leading and trailing silent blocks : No
Null samples used in CRC calculations : Yes
Used interface : Native Win32 interface for Win NT & 2000
Gap handling : Appended to previous track
Used output format : User Defined Encoder
Selected bitrate : 1024 kBit/s
Quality : High
Add ID3 tag : Yes
Command line compressor : C:\Program Files (x86)\FLAC\flac.exe
Additional command line options : -8 -V -T "ARTIST=%artist%" -T "TITLE=%title%" -T "ALBUM=%albumtitle%" -T "DATE=%year%" -T "TRACKNUMBER=%tracknr%" -T "GENRE=%genre%" -T "PERFORMER=%albuminterpret%" -T "COMPOSER=%composer%" %haslyrics%--tag-from-file=LYRICS="%lyricsfile%"%haslyrics% -T "ALBUMARTIST=%albumartist%" -T "DISCNUMBER=%cdnumber%" -T "TOTALDISCS=%totalcds%" -T "TOTALTRACKS=%numtracks%" -T "COMMENT=%comment%" %source% -o %dest%
TOC of the extracted CD
Track | Start | Length | Start sector | End sector
---------------------------------------------------------
1 | 0:00.00 | 3:48.13 | 0 | 17112
2 | 3:48.13 | 4:19.46 | 17113 | 36583
3 | 8:07.59 | 1:38.03 | 36584 | 43936
4 | 9:45.62 | 3:56.38 | 43937 | 61674
5 | 13:42.25 | 1:51.46 | 61675 | 70045
6 | 15:33.71 | 1:51.18 | 70046 | 78388
7 | 17:25.14 | 4:17.21 | 78389 | 97684
8 | 21:42.35 | 2:04.48 | 97685 | 107032
9 | 23:47.08 | 2:29.53 | 107033 | 118260
10 | 26:16.61 | 3:12.07 | 118261 | 132667
11 | 29:28.68 | 1:27.16 | 132668 | 139208
12 | 30:56.09 | 3:48.20 | 139209 | 156328
13 | 34:44.29 | 7:39.35 | 156329 | 190788
14 | 42:23.64 | 0:46.20 | 190789 | 194258
15 | 43:10.09 | 2:42.73 | 194259 | 206481
Track 1
Filename S:\D\Music\Rips\B0025620-02\01 Another Day Of Sun.wav
Pre-gap length 0:00:02.00
Peak level 99.7 %
Extraction speed 3.3 X
Track quality 100.0 %
Test CRC 06A95AB4
Copy CRC 06A95AB4
Track not present in AccurateRip database
Copy OK
Track 2
Filename S:\D\Music\Rips\B0025620-02\02 Someone In The Crowd.wav
Peak level 99.8 %
Extraction speed 3.1 X
Track quality 99.9 %
Test CRC AB08E199
Copy CRC AB08E199
Track not present in AccurateRip database
Copy OK
Track 3
Filename S:\D\Music\Rips\B0025620-02\03 Mia & Sebastian's Theme.wav
Peak level 99.7 %
Extraction speed 3.4 X
Track quality 100.0 %
Test CRC D2B80446
Copy CRC D2B80446
Track not present in AccurateRip database
Copy OK
Track 4
Filename S:\D\Music\Rips\B0025620-02\04 A Lovely Night.wav
Peak level 99.7 %
Extraction speed 4.3 X
Track quality 100.0 %
Test CRC 8DC9303C
Copy CRC 8DC9303C
Track not present in AccurateRip database
Copy OK
Track 5
Filename S:\D\Music\Rips\B0025620-02\05 Herman’s Habit.wav
Peak level 96.3 %
Extraction speed 3.9 X
Track quality 100.0 %
Test CRC 2D8B895B
Copy CRC 2D8B895B
Track not present in AccurateRip database
Copy OK
Track 6
Filename S:\D\Music\Rips\B0025620-02\06 City Of Stars.wav
Peak level 76.0 %
Extraction speed 2.7 X
Track quality 99.9 %
Test CRC F64C5289
Copy CRC F64C5289
Track not present in AccurateRip database
Copy OK
Track 7
Filename S:\D\Music\Rips\B0025620-02\07 Planetarium.wav
Peak level 99.7 %
Extraction speed 4.3 X
Track quality 99.9 %
Test CRC B275CB4C
Copy CRC B275CB4C
Track not present in AccurateRip database
Copy OK
Track 8
Filename S:\D\Music\Rips\B0025620-02\08 Summer Montage , Madeline.wav
Peak level 94.1 %
Extraction speed 4.5 X
Track quality 100.0 %
Test CRC 22C9E542
Copy CRC 22C9E542
Track not present in AccurateRip database
Copy OK
Track 9
Filename S:\D\Music\Rips\B0025620-02\09 City Of Stars.wav
Peak level 99.7 %
Extraction speed 3.5 X
Track quality 99.9 %
Test CRC 1D0C88A0
Copy CRC 1D0C88A0
Track not present in AccurateRip database
Copy OK
Track 10
Filename S:\D\Music\Rips\B0025620-02\10 Start A Fire.wav
Peak level 95.2 %
Extraction speed 5.2 X
Track quality 100.0 %
Test CRC 559B0278
Copy CRC 559B0278
Track not present in AccurateRip database
Copy OK
Track 11
Filename S:\D\Music\Rips\B0025620-02\11 Engagement Party.wav
Peak level 72.2 %
Extraction speed 4.4 X
Track quality 100.0 %
Test CRC 823A0951
Copy CRC 823A0951
Track not present in AccurateRip database
Copy OK
Track 12
Filename S:\D\Music\Rips\B0025620-02\12 Audition (The Fools Who Dream).wav
Peak level 99.7 %
Extraction speed 5.6 X
Track quality 100.0 %
Test CRC BF3DA3F1
Copy CRC BF3DA3F1
Track not present in AccurateRip database
Copy OK
Track 13
Filename S:\D\Music\Rips\B0025620-02\13 Epilogue.wav
Peak level 99.7 %
Extraction speed 5.6 X
Track quality 99.9 %
Test CRC D211038B
Copy CRC D211038B
Track not present in AccurateRip database
Copy OK
Track 14
Filename S:\D\Music\Rips\B0025620-02\14 The End.wav
Peak level 99.7 %
Extraction speed 4.0 X
Track quality 100.0 %
Test CRC 82EA6459
Copy CRC 82EA6459
Track not present in AccurateRip database
Copy OK
Track 15
Filename S:\D\Music\Rips\B0025620-02\15 City of Stars (Humming).wav
Peak level 38.3 %
Extraction speed 5.9 X
Track quality 100.0 %
Test CRC 6C70A51C
Copy CRC 6C70A51C
Track not present in AccurateRip database
Copy OK
None of the tracks are present in the AccurateRip database
No errors occurred
End of status report
---- CUETools DB Plugin V2.1.6
[CTDB TOCID: w65k_XAfhv815sfwqK9jTEcSwLI-] found
Submit result: w65k_XAfhv815sfwqK9jTEcSwLI- has been confirmed
Track | CTDB Status
1 | (27/27) Accurately ripped
2 | (27/27) Accurately ripped
3 | (27/27) Accurately ripped
4 | (27/27) Accurately ripped
5 | (27/27) Accurately ripped
6 | (27/27) Accurately ripped
7 | (27/27) Accurately ripped
8 | (27/27) Accurately ripped
9 | (27/27) Accurately ripped
10 | (27/27) Accurately ripped
11 | (27/27) Accurately ripped
12 | (27/27) Accurately ripped
13 | (27/27) Accurately ripped
14 | (27/27) Accurately ripped
15 | (27/27) Accurately ripped
==== Log checksum 265EFA954D21621713B399D959ACF682C168B9D6124E1A38F89A42920E325181 ====
LOG (.CUE): (Исправленный)
REM GENRE Soundtrack
REM DATE 2016
REM DISCID DF0AC10F
REM COMMENT "ExactAudioCopy v1.3"
CATALOG 0602557117776
PERFORMER "Justin Hurwitz"
TITLE "La La Land Original Motion Picture Soundtrack"
REM COMPOSER "Justin Hurwitz"
FILE "1.01 Another Day of Sun.flacwav" WAVE
TRACK 01 AUDIO
TITLE "Another Day Of Sun"
PERFORMER "La La Land Cast"
REM COMPOSER "Justin Hurwitz"
ISRC USUG11600653
INDEX 01 00:00:00
FILE "1.02 Someone in the Crowd.flac" WAVE
TRACK 02 AUDIO
TITLE "Someone In The Crowd"
PERFORMER "Emma Stone, Callie Hernandez, Sonoya Mizuno, Jessica Rothe"
REM COMPOSER "Justin Hurwitz"
ISRC USUG11600662
INDEX 01 00:00:00
FILE "1.03 Mia & Sebastian's Theme.flac" WAVE
TRACK 03 AUDIO
TITLE "Mia & Sebastian's Theme"
PERFORMER "Justin Hurwitz"
REM COMPOSER "Justin Hurwitz"
ISRC USUG11600660
INDEX 01 00:00:00
FILE "1.04 A Lovely Night.flac" WAVE
TRACK 04 AUDIO
TITLE "A Lovely Night"
PERFORMER "Ryan Gosling, Emma Stone"
REM COMPOSER "Justin Hurwitz"
ISRC USUG11600652
INDEX 01 00:00:00
FILE "1.05 Herman's Habit.flac" WAVE
TRACK 05 AUDIO
TITLE "Herman’s Habit"
PERFORMER "Justin Hurwitz"
REM COMPOSER "Justin Hurwitz"
ISRC USUG11600659
INDEX 01 00:00:00
FILE "1.06 City of Stars.flac" WAVE
TRACK 06 AUDIO
TITLE "City Of Stars"
PERFORMER "Ryan Gosling"
REM COMPOSER "Justin Hurwitz"
ISRC USUG11600665
INDEX 01 00:00:00
FILE "1.07 Planetarium.flac" WAVE
TRACK 07 AUDIO
TITLE "Planetarium"
PERFORMER "Justin Hurwitz"
REM COMPOSER "Justin Hurwitz"
ISRC USUG11600661
INDEX 01 00:00:00
FILE "1.08 Summer Montage - Madeline.flac" WAVE
TRACK 08 AUDIO
TITLE "Summer Montage / Madeline"
PERFORMER "Justin Hurwitz"
REM COMPOSER "Justin Hurwitz"
ISRC USUG11600663
INDEX 01 00:00:00
FILE "1.09 City of Stars.flac" WAVE
TRACK 09 AUDIO
TITLE "City Of Stars"
PERFORMER "Justin Hurwitz"
REM COMPOSER "Justin Hurwitz"
ISRC USUG11600656
INDEX 01 00:00:00
FILE "1.10 Start a Fire.flac" WAVE
TRACK 10 AUDIO
TITLE "Start A Fire"
PERFORMER "John Legend"
REM COMPOSER "John Stephens, Angйlique Cinйlu, Marius de Vries, Justin Hurwitz"
ISRC USUG11600664
INDEX 01 00:00:00
FILE "1.11 Engagement Party.flac" WAVE
TRACK 11 AUDIO
TITLE "Engagement Party"
PERFORMER "Justin Hurwitz"
REM COMPOSER "Justin Hurwitz"
ISRC USUG11600657
INDEX 01 00:00:00
FILE "1.12 Audition (The Fools Who Dream).flac" WAVE
TRACK 12 AUDIO
TITLE "Audition (The Fools Who Dream)"
PERFORMER "Emma Stone"
REM COMPOSER "Justin Hurwitz"
ISRC USUG11600654
INDEX 01 00:00:00
FILE "1.13 Epilogue.flac" WAVE
TRACK 13 AUDIO
TITLE "Epilogue"
PERFORMER "Justin Hurwitz"
REM COMPOSER "Justin Hurwitz"
ISRC USUG11600658
INDEX 01 00:00:00
FILE "1.14 The End.flac" WAVE
TRACK 14 AUDIO
TITLE "The End"
PERFORMER "Justin Hurwitz"
REM COMPOSER "Justin Hurwitz"
ISRC USUG11601142
INDEX 01 00:00:00
FILE "1.15 City of Stars (Humming).flac" WAVE
TRACK 15 AUDIO
TITLE "City of Stars (Humming)"
PERFORMER "Justin Hurwitz featuring Emma Stone"
REM COMPOSER "Justin Hurwitz"
ISRC USUG11600655
INDEX 01 00:00:00


Hi-Res
mp3
Download
Чтобы скачать .torrent файл необходима регистрация
Сайт не распространяет и не хранит электронные версии произведений, а лишь предоставляет доступ к создаваемому пользователями каталогу ссылок на торрент-файлы, которые содержат только списки хеш-сумм
[Профиль]  [ЛС] 

Vip007

Стаж: 7 лет 5 месяцев

Сообщений: 72

Vip007 · 10-Янв-17 22:04 (спустя 40 мин.)

[Цитировать] 

благодарствую!
[Профиль]  [ЛС] 

dotodot500

Top Bonus 04* 3TB

Стаж: 7 лет 3 месяца

Сообщений: 1207

dotodot500 · 11-Янв-17 00:10 (спустя 2 часа 5 мин., ред. 11-Янв-17 00:10)

[Цитировать] 

вата ?
Uploaded by nextday 1 week, 5 days ago
их закрыли чуть раньше,
это наверное с РТН
но всё равно вещь совершенно восхитительна!
как я Вас понимаю с желанием выставить этот шедевр!
СПАСИБО!
City of Stars- в любом варианте это кайф..
[Профиль]  [ЛС] 

Kator

Top Seed 03* 160r

Стаж: 9 лет 11 месяцев

Сообщений: 1899

Kator · 21-Янв-17 22:49 (спустя 10 дней)

[Цитировать] 

Наверно, самый черствый и не сентиментальный точно поплывет на этом фильме))
А музыкальная тема просто замечательная!
Mr. Hurwitz, браво!
[Профиль]  [ЛС] 

dr_VAD

Стаж: 5 лет 9 месяцев

Сообщений: 8


dr_VAD · 24-Янв-17 22:11 (спустя 2 дня 23 часа)

[Цитировать] 

Браво! Отлиный фильм, отличный саундтрэк, великолепные темы! Спасибо!
[Профиль]  [ЛС] 

Miradge

Стаж: 5 лет 5 месяцев

Сообщений: 13


Miradge · 28-Янв-17 18:13 (спустя 3 дня, ред. 28-Янв-17 18:13)

[Цитировать] 

А где\когда можно скачать сам фильм, не подскажите?
Спасибо за ОСТ.
[Профиль]  [ЛС] 

pizza.goth

Стаж: 2 года 3 месяца

Сообщений: 2


pizza.goth · 29-Янв-17 03:54 (спустя 9 часов)

[Цитировать] 

Спасибо!
[Профиль]  [ЛС] 
 
Ответить
Loading...
Error