(Anatolian rock) [CD] Fikret Kızılok (Fikret Kizilok) - Anadolu'yum - 2013, FLAC (tracks+.cue), lossless

Страницы:  1

Ответить
Автор
Сообщение

ugly17

Стаж: 8 лет 1 месяц

Сообщений: 48


10-Янв-17 22:42 (1 месяц 12 дней назад, ред. 10-Янв-17 22:56)

[Цитировать] 

Fikret Kızılok (Fikret Kizilok) / Anadolu'yum
Жанр: Anatolian rock
Носитель: CD
Страна-производитель диска (релиза): Испания
Год издания: 2013
Издатель (лейбл): Pharaway Sounds
Номер по каталогу: PHS016CD
Страна исполнителя (группы): Турция
Аудиокодек: FLAC (*.flac)
Тип рипа: tracks+.cue
Битрейт аудио: lossless
Продолжительность: 00:55:47
Источник (релизер): apollo.rip
Наличие сканов в содержимом раздачи: нет
Треклист:
1 Gün Ola Devran Döne
2 Leylim Leylim
3 Anadolu'’yum
4 Tutamadım Ellerini
5 Anadolu’'yum ‘'75 A.K.A. Akın Var Akın
6 Aşkın Olmadığı Yerde
7 Köroğlu Dağları
8 Bacın Önde Ben Arkada
9 Haberin Var Mı
10 Dar Ağacı
11 Gözlerinden Bellidir
12 Koyverdin Gittin Beni
13 Insan Mıyım Mahluk Muyum Ot Muyuml
14 Kör Pencere
Лог создания рипа
Exact Audio Copy V1.0 beta 4 from 7. December 2014
EAC extraction logfile from 19. December 2016, 22:18
Fikret Kızılok / Anadolu'yum
Used drive : HL-DT-STDVDRAM GUC0N Adapter: 1 ID: 0
Read mode : Secure
Utilize accurate stream : Yes
Defeat audio cache : Yes
Make use of C2 pointers : No
Read offset correction : 6
Overread into Lead-In and Lead-Out : No
Fill up missing offset samples with silence : Yes
Delete leading and trailing silent blocks : No
Null samples used in CRC calculations : Yes
Used interface : Native Win32 interface for Win NT & 2000
Gap handling : Appended to previous track
Used output format : User Defined Encoder
Selected bitrate : 1024 kBit/s
Quality : High
Add ID3 tag : No
Command line compressor : C:\Program Files (x86)\Exact Audio Copy\Flac\flac.exe
Additional command line options : -8 -V -T "ARTIST=%artist%" -T "TITLE=%title%" -T "ALBUM=%albumtitle%" -T "DATE=%year%" -T "TRACKNUMBER=%tracknr%" -T "GENRE=%genre%" -T "PERFORMER=%albuminterpret%" -T "COMPOSER=%composer%" %haslyrics%--tag-from-file=LYRICS="%lyricsfile%"%haslyrics% -T "ALBUMARTIST=%albumartist%" -T "DISCNUMBER=%cdnumber%" -T "TOTALDISCS=%totalcds%" -T "TOTALTRACKS=%numtracks%" -T "COMMENT=%comment%" %source% -o %dest%
TOC of the extracted CD
Track | Start | Length | Start sector | End sector
---------------------------------------------------------
1 | 0:00.00 | 2:58.55 | 0 | 13404
2 | 2:58.55 | 3:57.32 | 13405 | 31211
3 | 6:56.12 | 2:40.67 | 31212 | 43278
4 | 9:37.04 | 3:18.17 | 43279 | 58145
5 | 12:55.21 | 4:14.46 | 58146 | 77241
6 | 17:09.67 | 5:46.35 | 77242 | 103226
7 | 22:56.27 | 5:02.49 | 103227 | 125925
8 | 27:59.01 | 4:10.51 | 125926 | 144726
9 | 32:09.52 | 3:52.12 | 144727 | 162138
10 | 36:01.64 | 4:31.23 | 162139 | 182486
11 | 40:33.12 | 4:50.62 | 182487 | 204298
12 | 45:23.74 | 3:28.56 | 204299 | 219954
13 | 48:52.55 | 3:53.46 | 219955 | 237475
14 | 52:46.26 | 3:01.06 | 237476 | 251056
Track 1
Filename D:\FLAC\01 - Gün Ola Devran Döne.wav
Pre-gap length 0:00:02.00
Peak level 94.4 %
Extraction speed 1.1 X
Track quality 100.0 %
Test CRC B8494EA1
Copy CRC B8494EA1
Track not present in AccurateRip database
Copy OK
Track 2
Filename D:\FLAC\02 - Leylim Leylim.wav
Peak level 94.4 %
Extraction speed 1.2 X
Track quality 100.0 %
Test CRC 326B8014
Copy CRC 326B8014
Track not present in AccurateRip database
Copy OK
Track 3
Filename D:\FLAC\03 - Anadolu'’yum.wav
Peak level 94.4 %
Extraction speed 1.2 X
Track quality 100.0 %
Test CRC 3FA604BA
Copy CRC 3FA604BA
Track not present in AccurateRip database
Copy OK
Track 4
Filename D:\FLAC\04 - Tutamadım Ellerini.wav
Peak level 100.0 %
Extraction speed 1.0 X
Track quality 99.8 %
Test CRC 5CF0CFC5
Copy CRC 5CF0CFC5
Track not present in AccurateRip database
Copy OK
Track 5
Filename D:\FLAC\05 - Anadolu’'yum ‘'75 A.K.A. Akın Var Akın.wav
Peak level 100.0 %
Extraction speed 1.4 X
Track quality 99.9 %
Test CRC EB113F25
Copy CRC EB113F25
Track not present in AccurateRip database
Copy OK
Track 6
Filename D:\FLAC\06 - Aşkın Olmadığı Yerde.wav
Peak level 100.0 %
Extraction speed 1.7 X
Track quality 100.0 %
Test CRC ABEDDFA2
Copy CRC ABEDDFA2
Track not present in AccurateRip database
Copy OK
Track 7
Filename D:\FLAC\07 - Köroğlu Dağları.wav
Peak level 100.0 %
Extraction speed 1.8 X
Track quality 100.0 %
Test CRC DF0AB2A3
Copy CRC DF0AB2A3
Track not present in AccurateRip database
Copy OK
Track 8
Filename D:\FLAC\08 - Bacın Önde Ben Arkada.wav
Peak level 100.0 %
Extraction speed 1.7 X
Track quality 99.9 %
Test CRC E67BA165
Copy CRC E67BA165
Track not present in AccurateRip database
Copy OK
Track 9
Filename D:\FLAC\09 - Haberin Var Mı.wav
Peak level 100.0 %
Extraction speed 1.9 X
Track quality 100.0 %
Test CRC 41965DB6
Copy CRC 41965DB6
Track not present in AccurateRip database
Copy OK
Track 10
Filename D:\FLAC\10 - Dar Ağacı.wav
Peak level 89.1 %
Extraction speed 2.1 X
Track quality 100.0 %
Test CRC 5011F952
Copy CRC 5011F952
Track not present in AccurateRip database
Copy OK
Track 11
Filename D:\FLAC\11 - Gözlerinden Bellidir.wav
Peak level 89.1 %
Extraction speed 1.9 X
Track quality 99.9 %
Test CRC 15EEAB2D
Copy CRC 15EEAB2D
Track not present in AccurateRip database
Copy OK
Track 12
Filename D:\FLAC\12 - Koyverdin Gittin Beni.wav
Peak level 100.0 %
Extraction speed 2.1 X
Track quality 100.0 %
Test CRC 73DA819A
Copy CRC 73DA819A
Track not present in AccurateRip database
Copy OK
Track 13
Filename D:\FLAC\13 - Insan Mıyım Mahluk Muyum Ot Muyum.wav
Peak level 100.0 %
Extraction speed 2.2 X
Track quality 100.0 %
Test CRC BF8B38DB
Copy CRC BF8B38DB
Track not present in AccurateRip database
Copy OK
Track 14
Filename D:\FLAC\14 - Kör Pencere.wav
Peak level 100.0 %
Extraction speed 2.2 X
Track quality 100.0 %
Test CRC B6DB62F1
Copy CRC B6DB62F1
Track not present in AccurateRip database
Copy OK
None of the tracks are present in the AccurateRip database
No errors occurred
End of status report
---- CUETools DB Plugin V2.1.4
[CTDB TOCID: jdktqsiYfeTdnvEYrgnFGapte_8-] found
Submit result: jdktqsiYfeTdnvEYrgnFGapte_8- has been confirmed
Track | CTDB Status
1 | (2/3) Accurately ripped
2 | (2/3) Accurately ripped
3 | (2/3) Accurately ripped
4 | (2/3) Accurately ripped
5 | (2/3) Accurately ripped
6 | (1/3) Accurately ripped, or (1/3) differs in 15 samples @05:23:70,05:24:10,05:24:23,05:26:08,05:28:62,05:32:61
7 | (2/3) Accurately ripped
8 | (2/3) Accurately ripped
9 | (2/3) Accurately ripped
10 | (2/3) Accurately ripped
11 | (2/3) Accurately ripped
12 | (2/3) Accurately ripped
13 | (2/3) Accurately ripped
14 | (2/3) Accurately ripped
==== Log checksum 01BEB9359378065FE4BAC5BE9A2A7F1E37121BBEF44BCA9CDCBFFBFA137BA85B ====
Содержание индексной карты (.CUE)
REM GENRE World
REM DATE 2013
REM DISCID C60D130E
REM COMMENT "ExactAudioCopy v1.0b4"
CATALOG 4040824083762
PERFORMER "Fikret Kizilok"
TITLE "Anadolu'yum"
FILE "01 - Gьn Ola Devran Dцne.wav" WAVE
TRACK 01 AUDIO
TITLE "Gьn Ola Devran Dцne"
PERFORMER "Fikret Kizilok"
INDEX 01 00:00:00
FILE "02 - Leylim Leylim.wav" WAVE
TRACK 02 AUDIO
TITLE "Leylim Leylim"
PERFORMER "Fikret Kizilok"
INDEX 01 00:00:00
FILE "03 - Anadolu'.yum.wav" WAVE
TRACK 03 AUDIO
TITLE "Anadolu'.yum"
PERFORMER "Fikret Kizilok"
INDEX 01 00:00:00
FILE "04 - Tutamadim Ellerini.wav" WAVE
TRACK 04 AUDIO
TITLE "Tutamadim Ellerini"
PERFORMER "Fikret Kizilok"
INDEX 01 00:00:00
FILE "05 - Anadolu.'yum .'75 A.K.A. Akin Var Akin.wav" WAVE
TRACK 05 AUDIO
TITLE "Anadolu.'yum .'75 A.K.A. Akin Var Akin"
PERFORMER "Fikret Kizilok"
INDEX 01 00:00:00
FILE "06 - Askin Olmadigi Yerde.wav" WAVE
TRACK 06 AUDIO
TITLE "Askin Olmadigi Yerde"
PERFORMER "Fikret Kizilok"
INDEX 01 00:00:00
FILE "07 - Kцroglu Daglari.wav" WAVE
TRACK 07 AUDIO
TITLE "Kцroglu Daglari"
PERFORMER "Fikret Kizilok"
INDEX 01 00:00:00
FILE "08 - Bacin Цnde Ben Arkada.wav" WAVE
TRACK 08 AUDIO
TITLE "Bacin Цnde Ben Arkada"
PERFORMER "Fikret Kizilok"
INDEX 01 00:00:00
FILE "09 - Haberin Var Mi.wav" WAVE
TRACK 09 AUDIO
TITLE "Haberin Var Mi"
PERFORMER "Fikret Kizilok"
INDEX 01 00:00:00
FILE "10 - Dar Agaci.wav" WAVE
TRACK 10 AUDIO
TITLE "Dar Agaci"
PERFORMER "Fikret Kizilok"
INDEX 01 00:00:00
FILE "11 - Gцzlerinden Bellidir.wav" WAVE
TRACK 11 AUDIO
TITLE "Gцzlerinden Bellidir"
PERFORMER "Fikret Kizilok"
INDEX 01 00:00:00
FILE "12 - Koyverdin Gittin Beni.wav" WAVE
TRACK 12 AUDIO
TITLE "Koyverdin Gittin Beni"
PERFORMER "Fikret Kizilok"
INDEX 01 00:00:00
FILE "13 - Insan Miyim Mahluk Muyum Ot Muyum.wav" WAVE
TRACK 13 AUDIO
TITLE "Insan Miyim Mahluk Muyum Ot Muyum"
PERFORMER "Fikret Kizilok"
INDEX 01 00:00:00
FILE "14 - Kцr Pencere.wav" WAVE
TRACK 14 AUDIO
TITLE "Kцr Pencere"
PERFORMER "Fikret Kizilok"
INDEX 01 00:00:00
Доп. информация: Альбом редких записей Фикрета. Есть исполнение стихов Назыма Хикмета - трек 5 Anadolu’'yum ‘'75 A.K.A. Akın Var Akın
Download
Чтобы скачать .torrent файл необходима регистрация
Сайт не распространяет и не хранит электронные версии произведений, а лишь предоставляет доступ к создаваемому пользователями каталогу ссылок на торрент-файлы, которые содержат только списки хеш-сумм
[Профиль]  [ЛС] 
 
Ответить
Loading...
Error