Адрес РуТрекера для пользователей РФ - MainTracker.org

Расскажи друзьям:  

Полярное сияние - небесный огонь / Aurora - Fackeln am Firmament / Aurora - Fire in the sky (Иво Филач / Ivo Filatsch) [2012, Документальный, IPTVRip]

Страницы:  1

Ответить
Автор
Сообщение

moon_c@t

RG Документалисты

Стаж: 9 лет

Сообщений: 361

moon_c@t · 03-Июн-13 21:40 (4 года 4 месяца назад)

Полярное сияние - небесный огонь / Aurora - Fackeln am Firmament
Год выпуска: 2012
Страна: Австрия
Жанр: Документальный
Продолжительность: 00:52:48
Перевод: Профессиональный (двухголосый закадровый), студия «СВ-Дубль»
Русские субтитры: нет
Автор сценария и режиссер: Иво Филач / Ivo Filatsch
Описание: Полярное сияние - поразительное природное явление и величественное зрелище. Фильм - путешествие, которое начнется с древних мифов и легенд о полярном сиянии, и закончится научными исследованиями этого явления.
Доп. информация: Рип с ТК "Культура". Остаток логотипа замазан.
| Оф. сайт (англ.)
Качество: IPTVRip
Формат: AVI
Видео: Xvid, 704x400 (16/9), 25 fps, ~1407 Kbps kbps (0.200 bit/pixel)
Аудио: AC3, 48 KHz, 2 ch, 192 kbps
Сэмпл: Яндекс.Диск
MediaInfo
General
Complete name : ...\Полярное сияние - небесный огонь (Aurora - Fackeln am Firmament) (2012) [IPTVRip].avi
Format : AVI
Format/Info : Audio Video Interleave
File size : 608 MiB
Duration : 52mn 47s
Overall bit rate : 1 609 Kbps
Movie name : Полярное сияние - небесный огонь / Aurora - Fackeln am Firmament (2012)
Director : Иво Филач / Ivo Filatsch
Writing application : VirtualDubMod 1.5.10.3 | www.virtualdub-fr.org || (build 2550/release)
Writing library : VirtualDubMod build 2550/release
Comment : IPTVRip by moon_c@t (rutracker.org)
Video
ID : 0
Format : MPEG-4 Visual
Format profile : Advanced Simple@L5
Format settings, BVOP : 1
Format settings, QPel : No
Format settings, GMC : No warppoints
Format settings, Matrix : Custom
Codec ID : DX50
Codec ID/Hint : DivX 5
Duration : 52mn 47s
Bit rate : 1 407 Kbps
Width : 704 pixels
Height : 400 pixels
Display aspect ratio : 16:9
Frame rate : 25.000 fps
Color space : YUV
Chroma subsampling : 4:2:0
Bit depth : 8 bits
Scan type : Progressive
Compression mode : Lossy
Bits/(Pixel*Frame) : 0.200
Stream size : 531 MiB (87%)
Writing library : XviD 65
Audio
ID : 1
Format : AC-3
Format/Info : Audio Coding 3
Mode extension : CM (complete main)
Format settings, Endianness : Big
Codec ID : 2000
Duration : 52mn 47s
Bit rate mode : Constant
Bit rate : 192 Kbps
Channel(s) : 2 channels
Channel positions : Front: L R
Sampling rate : 48.0 KHz
Bit depth : 16 bits
Compression mode : Lossy
Stream size : 72.5 MiB (12%)
Alignment : Split accross interleaves
Interleave, duration : 40 ms (1.00 video frame)
Interleave, preload duration : 500 ms
Title : Студия «СВ-Дубль» (по заказу ГТРК «Культура»)
Скриншоты
Download
Чтобы скачать .torrent файл необходима регистрация
Сайт не распространяет и не хранит электронные версии произведений, а лишь предоставляет доступ к создаваемому пользователями каталогу ссылок на торрент-файлы, которые содержат только списки хеш-сумм
[Профиль]  [ЛС] 

mag017

Стаж: 8 лет 10 месяцев

Сообщений: 250


mag017 · 07-Дек-14 13:59 (спустя 1 год 6 месяцев)

[Цитировать] 

Hi! Спасибо! А где еще... ведь это только 45 серия Terra Mater (а уже есть и 118 серия Тёмная сторона растений. Убийства и хаос - Die Tricks der Pflanzen - Tödliche Fallen и это только за 2013)
С уважением, CU!
[Профиль]  [ЛС] 

Rasheff

Стаж: 10 лет

Сообщений: 6


Rasheff · 12-Июл-15 01:31 (спустя 7 месяцев)

[Цитировать] 

Не мог никак найти, искал по словам "Северное сияние. Огонь в небесах" ))
[Профиль]  [ЛС] 

kyba62

Top Bonus 05* 10TB

Стаж: 9 лет 6 месяцев

Сообщений: 442

kyba62 · 13-Мар-16 00:35 (спустя 8 месяцев, ред. 13-Мар-16 00:35)

[Цитировать] 

Странно, сегодня записал с Еврики немного под другим названием
moon_c@t писал(а):
59568221Рип с ТК "Культура"
Кстати, на его сайте http://tvkultura.ru/brand/show/brand_id/41606
вижу Aurora Fire in the Sky
[Профиль]  [ЛС] 

moon_c@t

RG Документалисты

Стаж: 9 лет

Сообщений: 361

moon_c@t · 14-Мар-16 13:58 (спустя 1 день 13 часов)

[Цитировать] 

kyba62
Название соответствует версии фильма. По "Культуре" показали немецкую. Ваша запись - видимо англоязычный вариант. Кстати, у меня где-то в "закромах" лежит в HD. Можете сделать небольшой сэмпл для сравнения качества?
[Профиль]  [ЛС] 

kyba62

Top Bonus 05* 10TB

Стаж: 9 лет 6 месяцев

Сообщений: 442

kyba62 · 18-Мар-16 20:29 (спустя 4 дня, ред. 18-Мар-16 20:29)

[Цитировать] 

moon_c@t
Пожалуйста, сэмпл
скрытый текст
[Профиль]  [ЛС] 
 
Ответить
Loading...
Error