Адрес РуТрекера для пользователей РФ - MainTracker.org

Расскажи друзьям:  

Сваты 3 / Серии: 1-12 из 12 (Андрей Яковлев) [2009, Комедия, HDTVRip]

Страницы:  1

Ответить
Автор
Сообщение

chuvakov77

Стаж: 8 лет 3 месяца

Сообщений: 57

chuvakov77 · 11-Янв-14 19:27 (3 года 11 месяцев назад, ред. 03-Июл-14 18:14)

Сваты 3
Год выпуска: 2009
Производство: «Студия Квартал-95»
Жанр: Комедия
Продолжительность:12 х ~ 00:48:00

Режиссёр: Андрей Яковлев
В ролях: Фёдор Добронравов, Людмила Артемьева, Анатолий Васильев (II), Татьяна Кравченко, Николай Добрынин, Александр Игнатуша, София Стеценко, Семен Фурман, Маргарита Шубина, Даниил Белых, Дмитрий Оскин, Дмитрий Сова, Оксана Коляденко, Анатолий Барчук, Валентина Ильяшенко, Жанна Богдевич, Ольга Гришина, Светлана Прус, Виктория Авдеенко

Описание: Главные герои сериала «Сваты» — девочка Женя и ее такие разные бабушки и дедушки: городские интеллигенты Ковалевы и типичные сельские жители Будько.
Родители Женечки — Маша и Максим — уезжают в Голландию и оставляют дочь в поселке на попечение Будько. Ковалевы приезжают помочь присмотреть за любимой внучкой, а заодно подготовить ее к поступлению в лицей! Так под одной крышей оказываются две семьи — городская и сельская. Противостояние между ними, сближение и объединение против общего врага обеспечивает сериал событиями и приключениями на все 12 серий!

Сваты 1
Сваты 2
Исходник
Все раздачи сериала
Сэмпл


Качество: HDTVRip (1080i)
Формат: AVI
Видео кодек: XviD
Аудио кодек: MP3
Видео: 608x336 (1.81:1), 25 fps, XviD build 50 ~945 kbps avg, 0.19 bit/pixel
Аудио: 48 kHz, MPEG Layer 3, 2 ch, ~128.00 kbps avg
MI
Код:
Общее
Полное имя                               : D:\Downloads\Svaty-3.2009.HDTVRip\Svaty.S03E01.HDTVRip.avi
Формат                                   : AVI
Формат/Информация                        : Audio Video Interleave
Размер файла                             : 372 Мбайт
Продолжительность                        : 48 м.
Общий поток                              : 1083 Кбит/сек
Библиотека кодирования                   : VirtualDub build 32593/release
Видео
Идентификатор                            : 0
Формат                                   : MPEG-4 Visual
Профиль формата                          : Advanced Simple@L5
Параметр BVOP формата                    : 1
Параметр QPel формата                    : Нет
Параметр GMC формата                     : Без точки перехода
Параметр матрицы формата                 : Default (H.263)
Идентификатор кодека                     : XVID
Идентификатор кодека/Подсказка           : XviD
Продолжительность                        : 48 м.
Битрейт                                  : 945 Кбит/сек
Ширина                                   : 608 пикселей
Высота                                   : 336 пикселей
Соотношение сторон                       : 16:9
Частота кадров                           : 25,000 кадров/сек
Цветовое пространство                    : YUV
Субдискретизация насыщенности            : 4:2:0
Битовая глубина                          : 8 бит
Тип развёртки                            : Прогрессивная
Метод сжатия                             : С потерями
Бит/(Пиксели*Кадры)                      : 0.185
Размер потока                            : 325 Мбайт (87%)
Библиотека кодирования                   : XviD 1.2.1 (UTC 2008-12-04)
Аудио
Идентификатор                            : 1
Формат                                   : MPEG Audio
Версия формата                           : Version 1
Профиль формата                          : Layer 3
Режим                                    : Joint stereo
Расширение режима                        : MS Stereo
Идентификатор кодека                     : 55
Идентификатор кодека/Подсказка           : MP3
Продолжительность                        : 48 м.
Вид битрейта                             : Постоянный
Битрейт                                  : 128 Кбит/сек
Каналы                                   : 2 канала
Частота                                  : 48,0 КГц
Метод сжатия                             : С потерями
Размер потока                            : 44,0 Мбайт (12%)
Выравнивание                             : Разделение по промежуткам
Продолжительность промежутка             : 40  мс. (1,00 видеокадр)
Время предзагрузки промежутка            : 500  мс.
Скриншоты
Download
Чтобы скачать .torrent файл необходима регистрация
Сайт не распространяет и не хранит электронные версии произведений, а лишь предоставляет доступ к создаваемому пользователями каталогу ссылок на торрент-файлы, которые содержат только списки хеш-сумм
[Профиль]  [ЛС] 

Сударыня

Moderator gray

Стаж: 10 лет 7 месяцев

Сообщений: 10710

Сударыня · 11-Янв-14 21:19 (спустя 1 час 51 мин.)

[Цитировать] 

chuvakov77
Что с рекламой? и надо сравнение сделать с этой раздачей http://maintracker.org/forum/viewtopic.php?t=3333927
Как правильно сделать сравнение скриншотов
[Профиль]  [ЛС] 

chuvakov77

Стаж: 8 лет 3 месяца

Сообщений: 57

chuvakov77 · 11-Янв-14 22:09 (спустя 49 мин.)

[Цитировать] 

Сударыня писал(а):
62493345chuvakov77
Что с рекламой? и надо сравнение сделать с этой раздачей http://maintracker.org/forum/viewtopic.php?t=3333927
Как правильно сделать сравнение скриншотов
Рекламы нет! http://screenshotcomparison.com/comparison/57104/picture:2
[Профиль]  [ЛС] 

bymbapaw

Стаж: 6 лет

Сообщений: 68


bymbapaw · 17-Янв-14 14:51 (спустя 5 дней)

[Цитировать] 

chuvakov77
Огромный грац тебе,пусть раздающие в этой теме двд5 нервно курят
А случайно 1 и 2-х сватов у тебя нет на раздачу?
[Профиль]  [ЛС] 

chuvakov77

Стаж: 8 лет 3 месяца

Сообщений: 57

chuvakov77 · 17-Янв-14 16:41 (спустя 1 час 50 мин.)

[Цитировать] 

bymbapaw писал(а):
62576530chuvakov77
Огромный грац тебе,пусть раздающие в этой теме двд5 нервно курят
А случайно 1 и 2-х сватов у тебя нет на раздачу?
Первых двух нет!
[Профиль]  [ЛС] 

LevijaT

Стаж: 5 лет 1 месяц

Сообщений: 1


LevijaT · 28-Мар-14 10:34 (спустя 2 месяца 10 дней)

[Цитировать] 

http://www.wmmail.ru/index.php?cf=reg-newr СПАМ
[Профиль]  [ЛС] 

megatron1973

Стаж: 9 лет 2 месяца

Сообщений: 1734

megatron1973 · 28-Мар-14 12:52 (спустя 2 часа 18 мин.)

[Цитировать] 

с какой серии вот момент про тост
Настоящий мужской ТОСТ.... и главное всё понятно
кто знает?
[Профиль]  [ЛС] 

2seroga

Стаж: 8 лет 4 месяца

Сообщений: 2


2seroga · 22-Апр-14 16:37 (спустя 25 дней)

[Цитировать] 

скорости можно?
[Профиль]  [ЛС] 

Sania61636

Стаж: 5 лет 7 месяцев

Сообщений: 51

Sania61636 · 13-Июн-14 16:36 (спустя 1 месяц 20 дней)

[Цитировать] 

Замечательный сериал, и отличная раздача. Спасибо.
[Профиль]  [ЛС] 

niagaral

Стаж: 8 лет 10 месяцев

Сообщений: 7


niagaral · 01-Июл-14 16:06 (спустя 17 дней)

[Цитировать] 

Скажите, где скачать 1 и 2 сезоны?
[Профиль]  [ЛС] 

chuvakov77

Стаж: 8 лет 3 месяца

Сообщений: 57

chuvakov77 · 03-Июл-14 15:03 (спустя 1 день 22 часа, ред. 03-Июл-14 15:03)

[Цитировать] 

niagaral писал(а):
64432199о
Сваты 1
Сваты 2
[Профиль]  [ЛС] 

tijon esp

Стаж: 6 лет 2 месяца

Сообщений: 19


tijon esp · 07-Дек-17 17:06 (спустя 3 года 5 месяцев)

[Цитировать] 

MUCHAS GRACIAS
[Профиль]  [ЛС] 
 
Ответить
Loading...
Error