Адрес РуТрекера для пользователей РФ - MainTracker.org

Расскажи друзьям:  

Добрыня Никитич и Змей Горыныч (Илья Максимов) [2006, мультфильм, комедия, приключения, BDRip]

Страницы:  1

Ответить
Автор
Сообщение

qqfclmwyp

Стаж: 7 лет 9 месяцев

Сообщений: 41

qqfclmwyp · 16-Дек-12 16:48 (5 лет назад, ред. 17-Дек-12 13:23)

Добрыня Никитич и Змей Горыныч
Страна: Россия
Жанр: мультфильм, комедия, приключения
Продолжительность: 01:08:08
Год выпуска: 2006
Русские субтитры: нет
Режиссёр: Илья Максимов
Роли озвучивали: Валерий Соловьев (Добрыня Никитич), Юрий Тарасов (Елисей), Сергей Маковецкий (Князь Киевский), Андрей Толубеев (Купец Колыван), Екатерина Гороховская (Забава Путятична), Олег Куликович (Змей Горыныч), Анатолий Петров (Бекет - Крымский Хан), Наталья Данилова (Баба Яга)
Описание: Отправился Добрыня Никитич спасать княжескую племянницу Забаву из лап Змея Горыныча. Но непросто будет Добрыне и его юному ученику Елисею выполнить задуманное. Не знает Добрыня, и даже не догадывается, что сам Князь поставлен в безвыходное положение и вовсе не заинтересован в возвращении племянницы. Тяжкое испытание предстоит Добрыне – познать горечь предательства. Однако не суждено будет сбыться злодейским планам – даже Баба Яга окажется бессильна перед прямым и честным Добрыней и другом его Елисеем...


Качество: BDRip || Исх.: BDRemux || Сэмпл
Формат: AVI
Видео: MPEG4, XviD, 704x384 (16/9), 23.976 fps, 1 915 Kbps (0.295 bit/pixel)
Аудио: AC-3, 48.0 KHz, 6 ch, 384 Kbps, CBR

Субтитры: отсутствуют
Подробные технические данные
Format                           : AVI
Format/Info : Audio Video Interleave
File size : 1.10 GiB
Duration : 1h 8mn
Overall bit rate : 2 308 Kbps
Movie name : Добрыня Никитич и Змей Горыныч (2006)
Writing application : VirtualDubMod 1.5.10.3 | www.virtualdub-fr.org || (build 2550/release)
Comment : 02.12.2012
Video
ID : 0
Format : MPEG-4 Visual
Format profile : Advanced Simple@L5
Format settings, BVOP : Yes
Format settings, QPel : No
Format settings, GMC : No warppoints
Format settings, Matrix : Custom
Codec ID : XVID
Codec ID/Hint : XviD
Duration : 1h 8mn
Bit rate : 1 915 Kbps
Width : 704 pixels
Height : 384 pixels
Display aspect ratio : 16:9
Frame rate : 23.976 fps
Color space : YUV
Chroma subsampling : 4:2:0
Bit depth : 8 bits
Scan type : Progressive
Bits/(Pixel*Frame) : 0.295
Stream size : 933 MiB (83%)
Writing library : XviD 65
Audio
ID : 1
Format : AC-3
Format/Info : Audio Coding 3
Mode extension : CM (complete main)
Codec ID : 2000
Duration : 1h 8mn
Bit rate mode : Constant
Bit rate : 384 Kbps
Channel(s) : 6 channels
Channel positions : Front: L C R, Side: L R, LFE
Sampling rate : 48.0 KHz
Bit depth : 16 bits
Stream size : 187 MiB (17%)
Alignment : Split accross interleaves
Interleave, duration : 42 ms (1.00 video frame)
Interleave, preload duration : 500 ms
Скриншоты
Download
Чтобы скачать .torrent файл необходима регистрация
Сайт не распространяет и не хранит электронные версии произведений, а лишь предоставляет доступ к создаваемому пользователями каталогу ссылок на торрент-файлы, которые содержат только списки хеш-сумм
[Профиль]  [ЛС] 

qqfclmwyp

Стаж: 7 лет 9 месяцев

Сообщений: 41

qqfclmwyp · 16-Дек-12 17:32 (спустя 44 мин.)

[Цитировать] 

http://maintracker.org/forum/viewtopic.php?t=4001664
http://screenshotcomparison.com/comparison/163841
[Профиль]  [ЛС] 

xfiles

RG Мультфильмы

Стаж: 10 лет 1 месяц

Сообщений: 39724

xfiles · 17-Дек-12 12:29 (спустя 18 часов)

[Цитировать] 

Как правильно сделать сравнение скриншотов ⇒
Цитата:
  • Скриншот в обязательном порядке должен содержать информацию (OSD) о типе кадра/Frame type. Также, желательно выведение параметров Current frame, Source file name, Input size (разрешение)
[Профиль]  [ЛС] 

qqfclmwyp

Стаж: 7 лет 9 месяцев

Сообщений: 41

qqfclmwyp · 17-Дек-12 13:04 (спустя 35 мин., ред. 19-Дек-12 19:19)

[Цитировать] 

xfiles
Cпасибо что показали где это находиться, я ещё в первый раз делаю, сейчас вроде бы уже правильно сделал, если нет то сильно не ругайте, сделаю как скажите или покажите.
http://screenshotcomparison.com/comparison/164022
Алеша Попович и Тугарин Змей (Константин Бронзит) [2004, мультфильм, мюзикл, комедия, BDRip]
Добрыня Никитич и Змей Горыныч (Илья Максимов) [2006 г., мультфильм, комедия, приключения, BDRip]
Илья Муромец и Соловей Разбойник (Владимир Торопчин) [2007 г., мультфильм, комедия, приключения, BDRip]
Три богатыря и Шамаханская царица (Сергей Глезин) [2010 г., мультфильм, комедия, приключения, BDRip]

Автор рипов: MECHANICAL ENGINEER
Иван Царевич и Серый Волк (Владимир Торопчин) [2011, мультфильм, комедия, приключения, HDRip]
Автор рипа: Captain_Max
Авторам рипов - большое спасибо за проделанную работу!
[Профиль]  [ЛС] 

Rusty Ryаn

Стаж: 4 года 11 месяцев

Сообщений: 6

Rusty Ryаn · 19-Янв-13 13:00 (спустя 1 месяц 1 день)

[Цитировать] 

Посмотрел последний мультфильм цикла - "Три богатыря. На дальних берегах". Валялсо от смеха , решил пересмотреть и остальные.
Автору раздачи
[Профиль]  [ЛС] 

Bokser3333333

Стаж: 9 лет 1 месяц

Сообщений: 329


Bokser3333333 · 19-Июл-13 10:59 (спустя 5 месяцев 30 дней)

[Цитировать] 

Господа выложите кто "Три богатыря на дальних берегах" в ави формате для полной коллекции.
[Профиль]  [ЛС] 

egory

Стаж: 7 лет 10 месяцев

Сообщений: 573


egory · 18-Сен-13 02:30 (спустя 1 месяц 29 дней)

[Цитировать] 

Скрины не с этого рипа. На скринах качество отменнейшее, а скачал -- еле средненькое.
[Профиль]  [ЛС] 

ordin_ov

Стаж: 8 лет 7 месяцев

Сообщений: 9

ordin_ov · 02-Янв-14 00:13 (спустя 3 месяца 13 дней)

[Цитировать] 

Скрины соответствуют файлу.
[Профиль]  [ЛС] 

MyLoveIsDead666

Стаж: 3 года 6 месяцев

Сообщений: 35


MyLoveIsDead666 · 14-Июн-14 08:01 (спустя 5 месяцев 12 дней)

[Цитировать] 

egory писал(а):
60914296Скрины не с этого рипа. На скринах качество отменнейшее, а скачал -- еле средненькое.
не правда приличное качество
[Профиль]  [ЛС] 
 
Ответить
Loading...
Error