Адрес РуТрекера для пользователей РФ - MainTracker.org

Расскажи друзьям:  

Большой скачок. Мосты [2011, Документальный, DVB]

Страницы:  1

Ответить
Автор
Сообщение

kuzmichm2196

RG Документалисты

Стаж: 7 лет 8 месяцев

Сообщений: 1854

kuzmichm2196 · 28-Дек-11 09:53 (5 лет 9 месяцев назад)

Большой скачок. Мосты
Год выпуска: 2011
Страна: Россия
Жанр: Документальный
Продолжительность: 00:26:17
Перевод: Не требуется
Описание: Приморье. Остров Русский. От материка его отделяют три с половиной километров. Сейчас здесь возводится объект, аналогов которому нет ни в России, ни в мире. На строительстве задействованы сотни человек. В ход идут тонны бетона и металла. И в расчетах важен каждый миллиметр! Через пролив будет перекинут вантовый мост.
Качество: DVB
Формат: MPEG
Видео кодек: MPEG2
Аудио кодек: MPEG1 Layer 2
Видео: MPEG2 Video 720x576 (4:3) 25.00fps ~2 300 Kbps
Аудио: MPEG Audio 48000Hz 2 channels 192 Кбит/сек
MediaInfo
General
Complete name : H:\999-mpeg\Большой скачок. Мосты_DVB by kuzmichm2196 .mpg
Format : MPEG-PS
File size : 475 MiB
Duration : 26mn 17s
Overall bit rate : 2 528 Kbps
Writing library : (c) 1998-2008 Womble Multimedia, Inc. / MPEG Video Wizard (08/2008) / Aug 25 2008
Video
ID : 224 (0xE0)
Format : MPEG Video
Format version : Version 2
Format profile : Main@Main
Format settings, BVOP : Yes
Format settings, Matrix : Default
Format settings, GOP : M=2, N=24
Duration : 26mn 17s
Bit rate mode : Variable
Bit rate : 2 285 Kbps
Nominal bit rate : 15.0 Mbps
Width : 720 pixels
Height : 576 pixels
Display aspect ratio : 4:3
Frame rate : 25.000 fps
Standard : PAL
Color space : YUV
Chroma subsampling : 4:2:0
Bit depth : 8 bits
Scan type : Interlaced
Scan order : Top Field First
Compression mode : Lossy
Bits/(Pixel*Frame) : 0.220
Stream size : 430 MiB (90%)
Writing library : (c) 1998-2008 Womble Multimedia, Inc. / MPEG Video Wizard (08/2008) / Aug 25 2008
Audio
ID : 192 (0xC0)
Format : MPEG Audio
Format version : Version 1
Format profile : Layer 2
Duration : 26mn 17s
Bit rate mode : Constant
Bit rate : 192 Kbps
Channel(s) : 2 channels
Sampling rate : 48.0 KHz
Compression mode : Lossy
Stream size : 36.1 MiB (8%)
Скриншоты
Download
Чтобы скачать .torrent файл необходима регистрация
Сайт не распространяет и не хранит электронные версии произведений, а лишь предоставляет доступ к создаваемому пользователями каталогу ссылок на торрент-файлы, которые содержат только списки хеш-сумм
[Профиль]  [ЛС] 

CarryOutZero

Стаж: 9 лет 7 месяцев

Сообщений: 7


CarryOutZero · 17-Ноя-12 20:57 (спустя 10 месяцев)

[Цитировать] 

На 14-й минуте побежали квадратики и звук наглухо уехал до конца фильма
[Профиль]  [ЛС] 
 
Ответить
Loading...
Error