Адрес РуТрекера для пользователей РФ - MainTracker.org

Расскажи друзьям:  

Большой скачок. Дендрохронология [2011, Документальный, DVB]

Страницы:  1

Ответить
Автор
Сообщение

kuzmichm2196

RG Документалисты

Стаж: 7 лет 8 месяцев

Сообщений: 1851

kuzmichm2196 · 28-Дек-11 09:38 (5 лет 9 месяцев назад)

Большой скачок. Дендрохронология
Год выпуска: 2011
Страна: Россия
Жанр: Документальный
Продолжительность: 00:26:17
Перевод: Не требуется
Описание: Живут. Растут. Дышат. Болеют. Стареют. И… ПОМНЯТ! Всё это присуще не только людям… Но и деревьям! Какие тайны хранит лес? И как предсказать будущее по растениям? - расскажет фильм «Большой скачок. Дендрохронология»!
Качество: DVB
Формат: MPEG
Видео кодек: MPEG2
Аудио кодек: MPEG1 Layer 2
Видео: MPEG2 Video 720x576 (4:3) 25.00fps ~3 000 Kbps
Аудио: MPEG Audio 48000Hz 2 channels 192 Кбит/сек
MediaInfo
General
Complete name : H:\999-mpeg\Большой скачок. Дендрохронология_DVB by kuzmichm2196 .mpg
Format : MPEG-PS
File size : 566 MiB
Duration : 26mn 17s
Overall bit rate : 3 007 Kbps
Writing library : (c) 1998-2008 Womble Multimedia, Inc. / MPEG Video Wizard (08/2008) / Aug 25 2008
Video
ID : 224 (0xE0)
Format : MPEG Video
Format version : Version 2
Format profile : Main@Main
Format settings, BVOP : Yes
Format settings, Matrix : Default
Format settings, GOP : M=3, N=24
Duration : 26mn 17s
Bit rate mode : Variable
Bit rate : 2 756 Kbps
Nominal bit rate : 15.0 Mbps
Width : 720 pixels
Height : 576 pixels
Display aspect ratio : 4:3
Frame rate : 25.000 fps
Standard : PAL
Color space : YUV
Chroma subsampling : 4:2:0
Bit depth : 8 bits
Scan type : Interlaced
Scan order : Top Field First
Compression mode : Lossy
Bits/(Pixel*Frame) : 0.266
Stream size : 518 MiB (92%)
Writing library : (c) 1998-2008 Womble Multimedia, Inc. / MPEG Video Wizard (08/2008) / Aug 25 2008
Audio
ID : 192 (0xC0)
Format : MPEG Audio
Format version : Version 1
Format profile : Layer 2
Duration : 26mn 17s
Bit rate mode : Constant
Bit rate : 192 Kbps
Channel(s) : 2 channels
Sampling rate : 48.0 KHz
Compression mode : Lossy
Delay relative to video : -40ms
Stream size : 36.1 MiB (6%)
Скриншоты
Download
Чтобы скачать .torrent файл необходима регистрация
Сайт не распространяет и не хранит электронные версии произведений, а лишь предоставляет доступ к создаваемому пользователями каталогу ссылок на торрент-файлы, которые содержат только списки хеш-сумм
[Профиль]  [ЛС] 

ujhtvjt

Стаж: 6 лет 10 месяцев

Сообщений: 16

ujhtvjt · 13-Фев-12 12:42 (спустя 1 месяц 16 дней)

[Цитировать] 

А мения есть или как обычно
[Профиль]  [ЛС] 

Eberhardson

Стаж: 9 лет 7 месяцев

Сообщений: 74


Eberhardson · 15-Сен-12 16:27 (спустя 7 месяцев)

[Цитировать] 

мнения вряд ли будут. когда начинается закачка, страницу закрывают, а потом уже не возвращаются. Но судя по скринам - программа интересная
[Профиль]  [ЛС] 
 
Ответить
Loading...
Error